↑↓torrent.by
Поиск
Логин: Регистрация
Пароль: Восстановить пароль

Тяжкий труд в подземелье / Meikyuu Black Company / The Dungeon of Black Company [01x01-10 из 12] (2021) WEBRip 1080p от KORSARS | D | Studio

Скачать tyazhkiy-trud-v-podzemele-meikyuu-black-company-the-dungeon-of-01x01-10-iz-12-2021-webrip-1080p-ot-korsars-d-studio.torrent
U Магнитная ссылка Размер: 12.42 GB Раздают: 17 Качают: 10 Добавлен: 2021-09-12 08:57:17
Тяжкий труд в подземелье / Meikyuu Black Company / The Dungeon of Black Company [01x01-10 из 12] (2021) WEBRip 1080p от KORSARS | D | Studio

Название: Тяжкий труд в подземелье
Альтернативное название: Лабиринт чёрной компании
Оригинальное название: Meikyuu Black Company
Название на английском: The Dungeon of Black Company
Год выхода: 2021
Жанр: комедия, фэнтези, исекай
Режиссер: Мирай Минато

О фильме:
Киндзи — невообразимый лодырь. После ряда махинаций с финансами он смог заработать столько денег, что нужда работать у него отпала. Однако в один момент Киндзи оказался перенесён в фэнтезийный мир, где стал рабом добывающей компании! Обнаружив себя на самом дне социальной лестницы с рабочим графиком, не предусматривавшим отдых, наш герой разозлился на весь мир и решил начать восхождение во имя собственных интересов!. © Wakanim


Страна: Япония
Продолжительность: ~ 00:23:40 (серия)
Перевод: Дублированный | StudioBand [Wakanim]

Файл
Формат: MKV
Кодек: MPEG-4 AVC
Качество: WEBRip 1080p
Видео: 1920x1080, ~6 931 kb/s, 23.976 FPS, 8 bit
Аудио (русский): AAC LC, 320 kb/s, 2 channels, 48.0 kHz
Субтитры: русские (вшитые, на надписи)

Релиз:

10.09.2021 обновлено. Добавлена 10 серия.


[+] MediaInfo

General
Unique ID                   : 238319113194177447643494772501400203402 (0xB34A9775DA6E0A80A6474FE58123308A)
Complete name               : [KORSARS]_Meikyuu.Black.Company.[S01E01].WEBRip.1080p_[StudioBand].mkv
Format                      : Matroska
Format version              : Version 4
File size                   : 1.20 GiB
Duration                    : 23 min 40 s
Overall bit rate            : 7 252 kb/s
Movie name                  : [KORSARS]_Meikyuu.Black.Company.[S01E01].WEBRip.1080p_[StudioBand]
Encoded date                : UTC 2021-07-09 14:07:51
Writing application         : mkvmerge v58.0.0 ('Supper's Ready') 64-bit
Writing library             : libebml v1.4.2 + libmatroska v1.6.4

Video
ID                          : 1
Format                      : AVC
Format/Info                 : Advanced Video Codec
Format profile              : High@L4.1
Format settings             : CABAC / 4 Ref Frames
Format settings, CABAC      : Yes
Format settings, Reference  : 4 frames
Codec ID                    : V_MPEG4/ISO/AVC
Duration                    : 23 min 40 s
Bit rate                    : 6 931 kb/s
Width                       : 1 920 pixels
Height                      : 1 080 pixels
Display aspect ratio        : 16:9
Frame rate mode             : Constant
Frame rate                  : 23.976 (24000/1001) FPS
Color space                 : YUV
Chroma subsampling          : 4:2:0
Bit depth                   : 8 bits
Scan type                   : Progressive
Bits/(Pixel*Frame)          : 0.139
Stream size                 : 1.15 GiB (96%)
Title                       : [KORSARS]_Meikyuu.Black.Company.[S01E01].WEBRip.1080p_[StudioBand]
Writing library             : x264 core 155 r2901 7d0ff22
Encoding settings           : cabac=1 / ref=4 / deblock=1:1:1 / analyse=0x3:0x133 / me=umh / subme=10 / psy=1 / psy_rd=0.40:0.00 / mixed_ref=1 / me_range=24 / chroma_me=1 / trellis=2 / 8x8dct=1 / cqm=0 / deadzone=21,11 / fast_pskip=1 / chroma_qp_offset=-2 / threads=34 / lookahead_threads=8 / sliced_threads=0 / nr=0 / decimate=1 / interlaced=0 / bluray_compat=0 / constrained_intra=0 / bframes=10 / b_pyramid=2 / b_adapt=2 / b_bias=0 / direct=3 / weightb=1 / open_gop=0 / weightp=2 / keyint=250 / keyint_min=23 / scenecut=40 / intra_refresh=0 / rc_lookahead=60 / rc=crf / mbtree=1 / crf=12.0 / qcomp=0.60 / qpmin=0 / qpmax=69 / qpstep=4 / ip_ratio=1.40 / aq=1:0.60
Default                     : Yes
Forced                      : No

Audio
ID                          : 2
Format                      : AAC LC
Format/Info                 : Advanced Audio Codec Low Complexity
Codec ID                    : A_AAC-2
Duration                    : 23 min 40 s
Bit rate                    : 319 kb/s
Channel(s)                  : 2 channels
Channel layout              : L R
Sampling rate               : 48.0 kHz
Frame rate                  : 46.875 FPS (1024 SPF)
Compression mode            : Lossy
Delay relative to video     : -21 ms
Stream size                 : 54.0 MiB (4%)
Title                       : [KORSARS]_Meikyuu.Black.Company.[S01E01].WEBRip.1080p_[StudioBand]
Language                    : Russian
Default                     : Yes
Forced                      : No



Скриншоты:
[+] Всего файлов в раздаче - 10:
[KORSARS]_Meikyuu.Black.Company.[S01E02].WEBRip.1080p_[StudioBand].mkv982.11 MB
[KORSARS]_Meikyuu.Black.Company.[S01E10].WEBRip.1080p_[StudioBand].mkv1.18 GB
[KORSARS]_Meikyuu.Black.Company.[S01E09].WEBRip.1080p_[StudioBand].mkv1.18 GB
[KORSARS]_Meikyuu.Black.Company.[S01E01].WEBRip.1080p_[StudioBand].mkv1.20 GB
[KORSARS]_Meikyuu.Black.Company.[S01E06].WEBRip.1080p_[StudioBand].mkv1.22 GB
[KORSARS]_Meikyuu.Black.Company.[S01E08].WEBRip.1080p_[StudioBand].mkv1.24 GB
[KORSARS]_Meikyuu.Black.Company.[S01E04].WEBRip.1080p_[StudioBand].mkv1.29 GB
[KORSARS]_Meikyuu.Black.Company.[S01E05].WEBRip.1080p_[StudioBand].mkv1.32 GB
[KORSARS]_Meikyuu.Black.Company.[S01E07].WEBRip.1080p_[StudioBand].mkv1.37 GB
[KORSARS]_Meikyuu.Black.Company.[S01E03].WEBRip.1080p_[StudioBand].mkv1.45 GB

Похожие раздачи по запросу - тяжкий:
2021-08-29 U Тяжкий труд в подземелье / Meikyuu Black Company / The Dungeon of Black Company [01x01-08 из 12] (2021) WEBRip 1080p от KORSARS | D | StudioBand 10.06 GB ↑ 3 ↓ 0

Отзывы
Зарегистрируйтесь чтобы добавить комментарий.
Загрузите программу
  byTorrent
Обратная связь
Copyleft ©