↑↓torrent.by
Поиск
Логин: Регистрация
Пароль: Восстановить пароль

Приказ «Уничтожить» / Секретное оружие (2019) BDRip 720p от ExKinoRay | GER Transfer | Лицензия

Скачать prikaz-unichtozhit-sekretnoe-oruzhie-2019-bdrip-720p-ot-exkinoray-ger-transfer-licenziya.torrent
U Магнитная ссылка Размер: 3.68 GB Раздают: 34 Качают: 7 Добавлен: 2021-09-12 08:57:22
Приказ «Уничтожить» / Секретное оружие (2019) BDRip 720p от ExKinoRay | GER Transfer | Лицензия

Название: Приказ «Уничтожить» / Секретное оружие
Год выхода: 2019
Жанр: Военный, драма
Режиссер: Костя Стат
В ролях: Александр Устюгов, Тимофей Трибунцев, Анатолий Гущин, Евгений Антропов, Поля Полякова, Азамат Нигманов, Надежда Анципович, Александр Ефрем.

О фильме:  Фильм рассказывает о знаменитой "Катюше", которая была секретным оружием в начальный период войны. Одна из этих уникальных машин утонула во время отступления советских войск. Специальное подразделение, сформированное из бывших спортсменов, отправляется на поиск и уничтожение "Катюши".

Страна: Россия
Студия: Mars Media Sales
Продолжительность: 01:34:32
Язык: Русский + проф. одноголосый на иностранную речь | Лицензия BD GER

Формат: MKV
Качество: BDRip 720p
Источник: |Secret.Weapon.Die.Geheimwaffe.2019.GERMAN.DUAL.COMPLETE.BLURAY-UNiVERSUM|
Видео: MPEG-4 AVC, 1280x720 (16:9), 25.000 fps, 5120 Kbps, 0.222 bit/pixel
Аудио : 48 kHz, AC3, 5.1, 448 Kbps | RUS |

Релиз:

Автор релиза:


[+] ОтчетМедиаИнфо

General
Unique ID                                : 185543645827072090905783242825900098381 (0x8B9668067B7F82659444FF6E4F6A034D)
Complete name                            : F:Secret.Weapon.2019.BDRip.720p.ExKinoRay.mkv
Format                                   : Matroska
Format version                           : Version 2
File size                                : 3.68 GiB
Duration                                 : 1 h 34 min
Overall bit rate                         : 5 570 kb/s
Movie name                               : Secret Weapon 2019 from ExKinoRay
Encoded date                             : UTC 2020-03-16 11:02:25
Writing application                      : mkvmerge v5.6.0 ('Kenya Kane') built on May 27 2012 16:44:04
Writing library                          : libebml v1.2.3 + libmatroska v1.3.0

Video
ID                                       : 1
Format                                   : AVC
Format/Info                              : Advanced Video Codec
Format profile                           : High@L4.1
Format settings, CABAC                   : Yes
Format settings, ReFrames                : 9 frames
Codec ID                                 : V_MPEG4/ISO/AVC
Duration                                 : 1 h 34 min
Bit rate                                 : 5 120 kb/s
Width                                    : 1 280 pixels
Height                                   : 720 pixels
Display aspect ratio                     : 16:9
Frame rate mode                          : Constant
Frame rate                               : 25.000 FPS
Color space                              : YUV
Chroma subsampling                       : 4:2:0
Bit depth                                : 8 bits
Scan type                                : Progressive
Bits/(Pixel*Frame)                       : 0.222
Stream size                              : 3.31 GiB (90%)
Title                                    : Enigma
Writing library                          : x264 core 152 r2851 ba24899
Encoding settings                        : cabac=1 / ref=9 / deblock=1:-2:-2 / analyse=0x3:0x113 / me=umh / subme=11 / psy=1 / psy_rd=1.02:0.05 / mixed_ref=1 / me_range=32 / chroma_me=1 / trellis=2 / 8x8dct=1 / cqm=0 / deadzone=21,11 / fast_pskip=0 / chroma_qp_offset=-3 / threads=12 / lookahead_threads=3 / sliced_threads=0 / nr=0 / decimate=0 / interlaced=0 / bluray_compat=0 / constrained_intra=0 / bframes=10 / b_pyramid=2 / b_adapt=2 / b_bias=0 / direct=3 / weightb=1 / open_gop=0 / weightp=2 / keyint=250 / keyint_min=25 / scenecut=40 / intra_refresh=0 / rc=2pass / mbtree=0 / bitrate=5120 / ratetol=1.0 / qcomp=0.60 / qpmin=0 / qpmax=51 / qpstep=4 / cplxblur=20.0 / qblur=0.5 / ip_ratio=1.40 / pb_ratio=1.30 / aq=1:1.00
Language                                 : English
Default                                  : Yes
Forced                                   : No
Color range                              : Limited
Color primaries                          : BT.709
Transfer characteristics                 : BT.709
Matrix coefficients                      : BT.709

Audio
ID                                       : 2
Format                                   : AC-3
Format/Info                              : Audio Coding 3
Mode extension                           : CM (complete main)
Format settings, Endianness              : Big
Codec ID                                 : A_AC3
Duration                                 : 1 h 34 min
Bit rate mode                            : Constant
Bit rate                                 : 448 kb/s
Channel(s)                               : 6 channels
Channel positions                        : Front: L C R, Side: L R, LFE
Sampling rate                            : 48.0 kHz
Frame rate                               : 31.250 FPS (1536 spf)
Compression mode                         : Lossy
Stream size                              : 303 MiB (8%)
Title                                    : Blu-Ray Ger
Language                                 : Russian
Default                                  : Yes
Forced                                   : No

Menu
00:00:00.000                             : :Chapter 01
00:05:19.919                             : :Chapter 02
00:10:22.359                             : :Chapter 03
00:15:07.240                             : :Chapter 04
00:20:39.640                             : :Chapter 05
00:25:01.679                             : :Chapter 06
00:30:03.840                             : :Chapter 07
00:34:13.160                             : :Chapter 08
00:40:34.480                             : :Chapter 09
00:45:17.719                             : :Chapter 10
00:51:32.360                             : :Chapter 11
00:57:19.680                             : :Chapter 12
01:11:21.280                             : :Chapter 13
01:17:28.040                             : :Chapter 14
01:24:09.800                             : :Chapter 15
01:28:45.040                             : :Chapter 16
01:34:32.000                             : :Chapter 17




Скриншоты:
[+] Всего файлов в раздаче - 1:
Secret.Weapon.2019.BDRip.720p.ExKinoRay.mkv3.68 GB

Отзывы
Зарегистрируйтесь чтобы добавить комментарий.
Загрузите программу
  byTorrent
Обратная связь
Copyleft ©