↑↓Torrent.by
Поиск
Логин: Регистрация
Пароль: Восстановить пароль
Загрузка...

Собачья жизнь 2 / A Dog's Journey (2019) BDRip 1080p от HDReactor | iTunes

Скачать sobachya-zhizn-2-a-dog-s-journey-2019-bdrip-1080p-ot-hdreactor-itunes.torrent
U Магнитная ссылка Размер: 5.71 GB Раздают: 248 Качают: 155 Добавлен: 2019-08-22 06:53:18
Собачья жизнь 2 / A Dog's Journey (2019) BDRip 1080p от HDReactor | iTunes

Название: Собачья жизнь 2
Оригинальное название: A Dog's Journey
Год выпуска: 2019
Жанр:  Фэнтези, драма, комедия, приключения, семейный
Выпущено: Индия, Гонконг, США, Китай, DreamWorks, Walden Media, Amblin Entertainment
Режиссер: Гейл Манкусо
В ролях: Дэннис Куэйд, Эбби Райдер Фортсон, Бетти Гилпин, Кэтрин Прескотт, Марг Хельгенбергер, Джош Гэд, Джейк Мэнли, Даниэла Барбоза, Йен Чен, Генри Лау, Эмма Фольк, Джонни Галэки

О фильме: Старый пес Бадди прожил несколько жизней, прежде чем воссоединиться со своим первым хозяином. Но на этом цепь его перерождений не оборвалась. Он возвращается в теле щенка, получает кличку Молли и выполняет новую миссию – принести счастье проблемной девочке-подростку СиДжей.

Продолжительность: 01:48:39
Перевод: Дублированный
Субтитры: Русские форсированные, английские полные

Файл
Качество: BDRip (1080p)
Видео: MPEG-4 AVC, 6700 Кбит/с, 1920x804
Аудио #1: Русский (AC3, 6 ch, 384 Кбит/с)
Аудио #2: Английский (AC3, 6 ch, 448 Кбит/с)

Семпл


Релиз:

Собачья жизнь  (2017) BDRip 1080p


[+] МедиаИнфо
Формат                                   : Matroska
Версия формата                           : Version 2
Размер файла                             : 5,71 Гбайт
Продолжительность                        : 1 ч. 48 м.
Общий поток                              : 7523 Кбит/сек
Название фильма                          : ~V ad~
Дата кодирования                         : UTC 2019-08-21 18:34:08
Программа кодирования                    : mkvmerge v6.5.0 ('Isn't she lovely') built on Oct 20 2013 12:50:05
Библиотека кодирования                   : libebml v1.3.0 + libmatroska v1.4.1
Обложка                                  : Yes
Attachments                              : cover.jpg

Видео
Идентификатор                            : 1
Формат                                   : AVC
Формат/Информация                        : Advanced Video Codec
Профиль формата                          : High@L4.1
Настройки формата                        : CABAC / 5 Ref Frames
Параметр CABAC формата                   : Да
Параметр RefFrames формата               : 5 кадров
Идентификатор кодека                     : V_MPEG4/ISO/AVC
Продолжительность                        : 1 ч. 48 м.
Битрейт                                  : 6689 Кбит/сек
Ширина                                   : 1920 пикселей
Высота                                   : 804 пикселя
Соотношение сторон                       : 2,40:1
Режим частоты кадров                     : Постоянный
Частота кадров                           : 23,976 (24000/1001) кадра/сек
Цветовое пространство                    : YUV
Субдискретизация насыщенности            : 4:2:0
Битовая глубина                          : 8 бит
Тип развёртки                            : Прогрессивная
Бит/(Пиксели*Кадры)                      : 0.181
Размер потока                            : 4,96 Гбайт (87%)
Заголовок                                : ~V~
Библиотека кодирования                   : x264 core 158 r2984 3759fcb
Настройки программы                      : cabac=1 / ref=5 / deblock=1:-3:-3 / analyse=0x3:0x133 / me=umh / subme=11 / psy=1 / psy_rd=1.00:0.00 / mixed_ref=1 / me_range=40 / chroma_me=1 / trellis=2 / 8x8dct=1 / cqm=0 / deadzone=21,11 / fast_pskip=0 / chroma_qp_offset=-2 / threads=12 / lookahead_threads=1 / sliced_threads=0 / nr=0 / decimate=0 / interlaced=0 / bluray_compat=0 / constrained_intra=0 / bframes=10 / b_pyramid=2 / b_adapt=2 / b_bias=0 / direct=3 / weightb=1 / open_gop=0 / weightp=2 / keyint=240 / keyint_min=23 / scenecut=40 / intra_refresh=0 / rc=2pass / mbtree=0 / bitrate=6689 / ratetol=1.0 / qcomp=0.60 / qpmin=0 / qpmax=69 / qpstep=4 / cplxblur=20.0 / qblur=0.5 / ip_ratio=1.10 / pb_ratio=1.30 / aq=3:1.00
Язык                                     : Английский
Default                                  : Да
Forced                                   : Нет

Аудио #1
Идентификатор                            : 2
Формат                                   : AC-3
Формат/Информация                        : Audio Coding 3
Коммерческое название                    : Dolby Digital
Идентификатор кодека                     : A_AC3
Продолжительность                        : 1 ч. 48 м.
Вид битрейта                             : Постоянный
Битрейт                                  : 384 Кбит/сек
Каналы                                   : 6 каналов
Channel layout                           : L R C LFE Ls Rs
Частота                                  : 48,0 КГц
Частота кадров                           : 31,250 кадров/сек (1536 SPF)
Битовая глубина                          : 16 бит
Метод сжатия                             : С потерями
Размер потока                            : 298 Мбайт (5%)
Заголовок                                : Dub
Язык                                     : Русский
Service Kind                             : Complete Main
Default                                  : Да
Forced                                   : Нет

Аудио #2
Идентификатор                            : 3
Формат                                   : AC-3
Формат/Информация                        : Audio Coding 3
Коммерческое название                    : Dolby Digital
Идентификатор кодека                     : A_AC3
Продолжительность                        : 1 ч. 48 м.
Вид битрейта                             : Постоянный
Битрейт                                  : 448 Кбит/сек
Каналы                                   : 6 каналов
Channel layout                           : L R C LFE Ls Rs
Частота                                  : 48,0 КГц
Частота кадров                           : 31,250 кадров/сек (1536 SPF)
Битовая глубина                          : 16 бит
Метод сжатия                             : С потерями
Размер потока                            : 348 Мбайт (6%)
Язык                                     : Английский
Service Kind                             : Complete Main
Default                                  : Нет
Forced                                   : Нет

Текст #1
Идентификатор                            : 4
Формат                                   : UTF-8
Идентификатор кодека                     : S_TEXT/UTF8
Идентификатор кодека/Информация          : UTF-8 Plain Text
Заголовок                                : Forced
Язык                                     : Русский
Default                                  : Да
Forced                                   : Нет

Текст #2
Идентификатор                            : 5
Формат                                   : UTF-8
Идентификатор кодека                     : S_TEXT/UTF8
Идентификатор кодека/Информация          : UTF-8 Plain Text
Язык                                     : Английский
Default                                  : Нет
Forced                                   : Нет

Меню
00:00:00.000                             : en:: en:Chapter 01
00:04:55.795                             : en:: en:Chapter 02
00:10:33.548                             : en:: en:Chapter 03
00:15:06.028                             : en:: en:Chapter 04
00:20:53.583                             : en:: en:Chapter 05
00:26:01.140                             : en:: en:Chapter 06
00:30:11.849                             : en:: en:Chapter 07
00:35:15.277                             : en:: en:Chapter 08
00:39:45.505                             : en:: en:Chapter 09
00:43:08.749                             : en:: en:Chapter 10
00:49:13.363                             : en:: en:Chapter 11
00:56:55.616                             : en:: en:Chapter 12
01:01:47.616                             : en:: en:Chapter 13
01:07:37.090                             : en:: en:Chapter 14
01:13:58.970                             : en:: en:Chapter 15
01:20:46.752                             : en:: en:Chapter 16
01:26:23.879                             : en:: en:Chapter 17
01:28:29.796                             : en:: en:Chapter 18
01:37:27.999                             : en:: en:Chapter 19
01:42:07.528                             : en:: en:Chapter 20



[+] х264
x264 [info]: profile High, level 4.1, 4:2:0, 8-bit
x264 [info]: frame I:1477  Avg QP:15.73  size:165257
x264 [info]: frame P:31770 Avg QP:16.39  size: 74137
x264 [info]: frame B:123075 Avg QP:17.69  size: 23167



Скриншоты:
[+] Всего файлов в раздаче - 1:
A.Dogs.Journey.2019.BDRip.1080p.HDReactor.mkv5.71 GB

Показать еще раздачи по запросу собачья:
2019-08-24 U Собачья жизнь 2 / A Dog's Journey (2019) BDRip от Twister & ExKinoRay | iTunes 1.41 GB ↑ 68 ↓ 10
2019-08-23 U Собачья жизнь 2 / A Dog's Journey (2019) BDRip от MegaPeer | iTunes 745.84 MB ↑ 56 ↓ 8
2019-08-23 U Собачья жизнь 2 / A Dog's Journey (2019) BDRip | iTunes 2.18 GB ↑ 97 ↓ 18
2019-08-22 U Собачья жизнь 2 / A Dog's Journey (2019) HDRip от ExKinoRay | iTunes 746.13 MB ↑ 35 ↓ 20
2019-08-22 U Собачья жизнь 2 / A Dog's Journey (2019) BDRip-AVC от OlLanDGroup | iTunes 1.65 GB ↑ 38 ↓ 14
2019-08-22 U Собачья жизнь 2 / A Dog's Journey (2019) BDRip-AVC от ExKinoRay | iTunes 1К1.97 GB ↑ 58 ↓ 36
2019-08-22 U Собачья жизнь 2 / A Dog's Journey (2019) BDRip от MegaPeer | iTunes 1.46 GB ↑ 269 ↓ 114

Отзывы
Зарегистрируйтесь чтобы добавить комментарий.
Обратная связь
Copyleft ©