↑↓Torrent.by
Поиск
Логин: Регистрация
Пароль: Восстановить пароль

Однажды в… Голливуде / Once Upon a Time in... Hollywood (2019) CAMRip | A

Скачать odnazhdy-v-gollivude-once-upon-a-time-in-hollywood-2019-camrip.torrent
U Магнитная ссылка Размер: 2.61 GB Раздают: 192 Качают: 43 Добавлен: 2019-08-22 06:53:47
Однажды в… Голливуде / Once Upon a Time in... Hollywood (2019) CAMRip | A

Название: Однажды в… Голливуде
Оригинальное название: Once Upon a Time in... Hollywood
Год выхода: 2019
Жанр: драма, комедия
Режиссер: Квентин Тарантино
В ролях: Леонардо ДиКаприо, Брэд Питт, Марго Робби, Эмиль Хирш, Маргарет Куэлли, Тимоти Олифант, Джулия Баттерз, Остин Батлер, Дакота Фаннинг, Брюс Дерн

О фильме:
Фильм повествует о череде событий, произошедших в Голливуде в 1969 году, на закате его «золотого века». Известный актер Рик Далтон и его дублер Клифф Бут пытаются найти свое место в стремительно меняющемся мире киноиндустрии.

Страна: США, Великобритания, Китай
Продолжительность: 02:41:00
Перевод: авторский (одноголосый закадровый) Андрей Дольский
Субтитры: китайские (hardsub)
Оригинальная аудиодорожка: английский

Файл
Качество: CAMRip
Видео: MPEG4 Video (H264) 1004x468 30fps
Аудио 1: Dolby AC3 48000Hz stereo 192kbps, rus
Аудио 2: Dolby AC3 48000Hz stereo 192kbps, eng

Семпл


[+] MediaInfo
General
Unique ID                   : 113551159280759383807889690268544024960 (0x556D2864C92CF5E491CD802C754C4180)
Complete name               : D:Once Upon a Time in Hollywood [CAMRIP].mkv
Format                      : Matroska
Format version              : Version 4
File size                   : 2.61 GiB
Duration                    : 2 h 40 min
Overall bit rate mode       : Variable
Overall bit rate            : 2 335 kb/s
Movie name                  : Once Upon a Time in Hollywood
Deion                 : A faded television actor and his stunt double strive to achieve fame and success in the film industry during the final years of Hollywood's Golden Age in 1969 Los Angeles.
Writing application         : Lavf
Writing library             : Lavf
ErrorDetectionType          : Per level 1
Attachments                 : poster
ACTORS                      : Leonardo DiCaprio, Brad Pitt, Margot Robbie, Emile Hirsch, Margaret Qualley, Timothy Olyphant, Julia Butters, Austin Butler, Dakota Fanning, Bruce Dern, Mike Moh, Luke Perry, Damian Lewis, Al Pacino, Kurt Russell, Nicholas Hammond, Samantha Robinson, Rafał Zawierucha, Lorenza Izzo, Damon Herriman, Lena Dunham, Madisen Beaty, Mikey Madison, James Landry Hébert, Maya Hawke, Victoria Pedretti, Sydney Sweeney, Harley Quinn Smith, Dallas Jay Hunter, Kansas Bowling, Parker Love Bowling, Cassidy Vick Hice, Ruby Rose Skotchdopole, Danielle Harris, Josephine Valentina Clark, Scoot McNairy, Clifton Collins Jr., Dreama Walker, Rachel Redleaf, Rebecca Rittenhouse, Rumer Willis, Spencer Garrett, Rebecca Gayheart, Zoë Bell, Marco Rodríguez, Michael Madsen, Robert Broski, Bomber Hurley-Smith, Sarah May Sommers, Daniel Callister, Zack Whyel, Sean Baker, Dyani Del Castillo, Brenda Vaccaro, Clu Gulager, Martin Kove, Nichole Galicia, Craig Stark, Ramón Franco, Aundrea Smith, Raul Cardona, Costa Ronin, Keith Jefferson, Eddie Perez, Maurice Compte, Lew Temple, JLouis Mills, Vincent Laresca, Daniella Pick, Victoria Truscott, Monica Staggs, Julyah Rose, Brianna Joy Chomer, Suzanne LaChasse, Kasey Landoll, Forrest Jade, Caitlin Herst, Elisabeth Ferrara, Inbal Amirav, C. Ronald McPherson, Eddie J. Rangel, Richard Allan Jones, Bruce Del Castillo, Michael Vincent McHugh, Hal Dion, Michael Thomas Cox, Gilbert Saldivar, George Thomas Mansel, Juliette Kida, William Pierce, Zander Grable, Parker Love Bowling, Lucia Oskerova, Philip Harville, John Rabe, David Wieler, Jake Ersek, R.J. Asher, Jasen Salvatore, Don Pecchia, Johnny Otto, Mayra-Alejandra Garcia, Rage Stewart, Cailan Robinson, Miranda Dos Santos, Tom Hartig, Gina Omilon, Tom David, David M. Edelstien, Veronika Mindal, Kenneth Sonny Donato, Dave Silva, Carolina Vargas, Christopher Hunt, Chris Scagos, Jordan Saria Oram, Peter Neil, Jason Catron, Gary Private, Edward Headington, Nas Mehdi, James T. Schlegel, Lisa Y. Sheeler, Hayley Malia Johnson, Chad Ridgely, Brian Patrick Butler, Adrian Dev, Lisa Dee, Jennifer Churchich, Michael Graham, Jennifer Moxham, Gabriela Flores, Mark Krenik, David Steen, India Everett, Dallas Chandler, Penelope Kapudija, Omar Doom, Alfredo Tavares, Spencer Garrett, Sheila M. Lockhart, HaleyRae Christian Cannell, Katarina Pavelek, Alexander Tassopoulos, Amber Kahwaji, Danielle Krett, Nicholas Walker, Miguel Fasa, Hunter Jones, Alicia Karami, Christina Sergoyan, Shannon Elizabeth Stone, Natalie Cohen, Courtney M. Moore, Kerry Westcott, Emilee Bickert, María Birta, Trevor Wooldridge, Andrea Bensussen, Breanna Wing, Christopher Arminio, Jeff Jocoy, Bridie Latona, David Delagarza, Weston Razooli, Alina Zilbershmidt, Angela Cela, Will Elkins, Chase Levy, Regina Valitova, Jacob Antolini, John Luder, James Remar, Rachael Wotherspoon, Martin Abrahams, Leslie Bega
COUNTRY                     : United Kingdom, United States
DATE                        : 2019-07-26
DIRECTOR                    : Quentin Tarantino
ENCODING_INFO               : JPEG > COPY Быстрое
GENRE                       : Drama, Comedy, Action, Crime, Western
HD_VIDEO                    : 1
ITUNEXTC                    : 18
Language                    : und
MEDIA_TYPE                  : 9
PRODUCER                    : David Heyman, Shannon McIntosh, Quentin Tarantino
PUBLISHER                   : Heyday Films, Columbia Pictures
RATING                      : 7.60

Video
ID                          : 1
Format                      : AVC
Format/Info                 : Advanced Video Codec
Format profile              : Main@L3.1
Format settings             : CABAC / 2 Ref Frames
Format settings, CABAC      : Yes
Format settings, Reference  : 2 frames
Format settings, GOP        : M=1, N=30
Codec ID                    : V_MPEG4/ISO/AVC
Duration                    : 2 h 40 min
Bit rate mode               : Variable
Bit rate                    : 1 904 kb/s
Maximum bit rate            : 2 917 kb/s
Width                       : 1 004 pixels
Height                      : 468 pixels
Display aspect ratio        : 2.145
Frame rate mode             : Constant
Frame rate                  : 29.970 (30000/1001) FPS
Color space                 : YUV
Chroma subsampling          : 4:2:0
Bit depth                   : 8 bits
Scan type                   : Progressive
Bits/(Pixel*Frame)          : 0.135
Stream size                 : 2.13 GiB (82%)
Language                    : English
Default                     : Yes
Forced                      : No

Audio #1
ID                          : 2
Format                      : AC-3
Format/Info                 : Audio Coding 3
Commercial name             : Dolby Digital
Codec ID                    : A_AC3
Duration                    : 2 h 40 min
Bit rate mode               : Constant
Bit rate                    : 192 kb/s
Channel(s)                  : 2 channels
Channel layout              : L R
Sampling rate               : 48.0 kHz
Frame rate                  : 31.250 FPS (1536 SPF)
Bit depth                   : 16 bits
Compression mode            : Lossy
Stream size                 : 220 MiB (8%)
Title                       : Дольский
Language                    : Russian
Service kind                : Complete Main
Default                     : Yes
Forced                      : No

Audio #2
ID                          : 3
Format                      : AC-3
Format/Info                 : Audio Coding 3
Commercial name             : Dolby Digital
Codec ID                    : A_AC3
Duration                    : 2 h 40 min
Bit rate mode               : Constant
Bit rate                    : 192 kb/s
Channel(s)                  : 2 channels
Channel layout              : L R
Sampling rate               : 48.0 kHz
Frame rate                  : 31.250 FPS (1536 SPF)
Bit depth                   : 16 bits
Compression mode            : Lossy
Stream size                 : 220 MiB (8%)
Language                    : English
Service kind                : Complete Main
Default                     : No
Forced                      : No



Скриншоты:
[+] Всего файлов в раздаче - 1:
Once Upon a Time in Hollywood [CAMRIP].mkv2.61 GB

Показать еще раздачи по запросу однажды:
2019-10-20 U Однажды в России [06х01-13] (2019) WEBRip 720p от Files-x 13.10 GB ↑ 73 ↓ 157
2019-10-12 U Однажды в Стокгольме / Stockholm (2018) BDRip 1080p от селезень | D, P | iTunes 7.25 GB ↑ 188 ↓ 134
2019-10-12 U Однажды в Стокгольме / Stockholm (2018) BDRip от MegaPeer | iTunes 1.42 GB ↑ 148 ↓ 28
2019-09-19 U Однажды в России [06х01-10] (2019) WEBRip 720p от Files-x 9.93 GB ↑ 50 ↓ 92
2019-09-13 U Однажды в России [06х01-09] (2019) WEBRip 720p от Files-x 8.87 GB ↑ 43 ↓ 78
2019-09-07 U Однажды в России [06х01-09] (2019) WEBRip 720p от Files-x 8.80 GB ↑ 135 ↓ 109
2019-07-15 U Однажды в Стокгольме / Stockholm (2018) WEB-DLRip от MegaPeer | iTunes 1.46 GB ↑ 261 ↓ 73

Отзывы
Зарегистрируйтесь чтобы добавить комментарий.
Обратная связь
Copyleft ©