↑↓Torrent.by
Поиск
Логин: Регистрация
Пароль: Восстановить пароль
Загрузка...

Собачья жизнь 2 / A Dog's Journey (2019) BDRip-AVC от OlLanDGroup | iTunes

Скачать sobachya-zhizn-2-a-dog-s-journey-2019-bdrip-avc-ot-ollandgroup-itunes.torrent
U Магнитная ссылка Размер: 1.65 GB Раздают: 37 Качают: 14 Добавлен: 2019-08-22 07:53:51
Собачья жизнь 2 / A Dog's Journey (2019) BDRip-AVC от OlLanDGroup | iTunes

Собачья жизнь 2 / A Dog's Journey
«Настоящей дружбе одной жизни мало»

Год выпуска: 2019
Страна: Индия, Гонконг, США, Китай
Производство: DreamWorks, Walden Media, Amblin Entertainment
Жанр:  Фэнтези, драма, комедия, приключения, семейный

Режиссёр: Гейл Манкусо
В ролях: Дэннис Куэйд, Эбби Райдер Фортсон, Бетти Гилпин, Кэтрин Прескотт, Марг Хельгенбергер, Джош Гэд, Джейк Мэнли, Даниэла Барбоза, Йен Чен, Генри Лау, Эмма Фольк, Джонни Галэки

Перевод: Дублированный | [iTunes]
Субтитры: Русские (форс.)
Реклама: Отсутствует

Описание: Главного героя зовут Бэйли, он любит бекон и своего человека Итана. Они прожили вместе много счастливых лет, и вот настала пора прощаться. Но разве он может уйти, когда другу так нужна помощь?

Ради Итана он готов на все… даже если в одной из жизней ему придётся стать девчонкой.

Качество: BDRip-AVC | BDRemux | A.Dogs.Journey.2019.1080p.BluRay.REMUX.DTS-HD.MA.TrueHD.5.1-FGT
Продолжительность: 01:48:39

Формат: MKV
Видео кодек: MPEG-4 AVC
Аудио кодек: AC3
Видео: 1024x428 (2.40:1), 23,976 fps, x264 ~1 784 kbps avg, 0.170 bit/pixel
Аудио #1: 48 kHz, AC3 Dolby Digital, 3/2 (L,C,R,l,r) + LFE ch, ~384.00 kbps avg | RUS (iTunes)

Дата премьеры (мир): 3 мая 2019
Дата премьеры (РФ): 27 июня 2019, «UPI»
Цифровой релиз: 22 августа 2019, «Universal»

Релиз:


[+] MediaInfo

Общее
Уникальный идентификатор                 : 261724496826077675039628130867442457871 (0xC4E64DF7C177E0F4CE25993CA7799D0F)
Полное имя                               : F:OlLanDGroupA.Dogs.Journey.2019.BDRip(AVC).OlLanDGroup.mkv
Формат                                   : Matroska
Версия формата                           : Version 4 / Version 2
Размер файла                             : 1,65 Гбайт
Продолжительность                        : 1 ч. 48 м.
Общий поток                              : 2170 Кбит/сек
Название фильма                          : A.Dogs.Journey.2019   #TorpedoUK#
Дата кодирования                         : UTC 2019-08-21 23:58:19
Программа кодирования                    : mkvmerge v29.0.0 ('Like It Or Not') 64-bit
Библиотека кодирования                   : libebml v1.3.6 + libmatroska v1.4.9

Видео
Идентификатор                            : 1
Формат                                   : AVC
Формат/Информация                        : Advanced Video Codec
Профиль формата                          : High@L4.1
Параметр CABAC формата                   : Да
Параметр ReFrames формата                : 10 кадров
Идентификатор кодека                     : V_MPEG4/ISO/AVC
Продолжительность                        : 1 ч. 48 м.
Битрейт                                  : 1784 Кбит/сек
Ширина                                   : 1024 пикселя
Высота                                   : 428 пикселей
Соотношение сторон                       : 2,40:1
Режим частоты кадров                     : Постоянный
Частота кадров                           : 23,976 (24000/1001) кадра/сек
Цветовое пространство                    : YUV
Субдискретизация насыщенности            : 4:2:0
Битовая глубина                          : 8 бит
Тип развёртки                            : Прогрессивная
Бит/(Пиксели*Кадры)                      : 0.170
Размер потока                            : 1,35 Гбайт (82%)
Библиотека кодирования                   : x264 core 146 r2538 121396c
Настройки программы                      : cabac=1 / ref=10 / deblock=1:-3:-3 / analyse=0x3:0x113 / me=umh / subme=11 / psy=1 / psy_rd=1.00:0.03 / mixed_ref=1 / me_range=48 / chroma_me=1 / trellis=2 / 8x8dct=1 / cqm=0 / deadzone=21,11 / fast_pskip=1 / chroma_qp_offset=-3 / threads=6 / lookahead_threads=1 / sliced_threads=0 / nr=0 / decimate=1 / interlaced=0 / bluray_compat=0 / constrained_intra=0 / bframes=11 / b_pyramid=2 / b_adapt=2 / b_bias=0 / direct=3 / weightb=1 / open_gop=0 / weightp=2 / keyint=240 / keyint_min=23 / scenecut=40 / intra_refresh=0 / rc_lookahead=40 / rc=2pass / mbtree=0 / bitrate=1784 / ratetol=1.0 / qcomp=0.60 / qpmin=0 / qpmax=69 / qpstep=4 / cplxblur=20.0 / qblur=0.5 / vbv_maxrate=50000 / vbv_bufsize=62500 / nal_hrd=none / filler=0 / ip_ratio=1.40 / pb_ratio=1.30 / aq=1:1.00
Язык                                     : English
Default                                  : Да
Forced                                   : Нет

Аудио
Идентификатор                            : 2
Формат                                   : AC-3
Формат/Информация                        : Audio Coding 3
Расширение режима                        : CM (complete main)
Параметр Endianness формата              : Big
Идентификатор кодека                     : A_AC3
Продолжительность                        : 1 ч. 48 м.
Вид битрейта                             : Постоянный
Битрейт                                  : 384 Кбит/сек
Каналы                                   : 6 каналов
Расположение каналов                     : Front: L C R, Side: L R, LFE
Частота                                  : 48,0 КГц
Частота кадров                           : 31,250 кадров/сек (1536 spf)
Битовая глубина                          : 16 бит
Метод сжатия                             : С потерями
Размер потока                            : 298 Мбайт (18%)
Заголовок                                : DUB [iTunes]
Язык                                     : Russian
Default                                  : Да
Forced                                   : Нет

Текст
Идентификатор                            : 3
Формат                                   : UTF-8
Идентификатор кодека                     : S_TEXT/UTF8
Идентификатор кодека/Информация          : UTF-8 Plain Text
Продолжительность                        : 1 ч. 4 м.
Битрейт                                  : 1 бит/сек
Count of elements                        : 11
Размер потока                            : 608 байт (0%)
Заголовок                                : Forced
Язык                                     : Russian
Default                                  : Да
Forced                                   : Нет



Скриншоты:
[+] Всего файлов в раздаче - 1:
A.Dogs.Journey.2019.BDRip(AVC).OlLanDGroup.mkv1.65 GB

Показать еще раздачи по запросу собачья:
2019-08-24 U Собачья жизнь 2 / A Dog's Journey (2019) BDRip от Twister & ExKinoRay | iTunes 1.41 GB ↑ 66 ↓ 10
2019-08-23 U Собачья жизнь 2 / A Dog's Journey (2019) BDRip от MegaPeer | iTunes 745.84 MB ↑ 55 ↓ 8
2019-08-23 U Собачья жизнь 2 / A Dog's Journey (2019) BDRip | iTunes 2.18 GB ↑ 97 ↓ 18
2019-08-22 U Собачья жизнь 2 / A Dog's Journey (2019) HDRip от ExKinoRay | iTunes 746.13 MB ↑ 35 ↓ 20
2019-08-22 U Собачья жизнь 2 / A Dog's Journey (2019) BDRip-AVC от ExKinoRay | iTunes 1К1.97 GB ↑ 58 ↓ 36
2019-08-22 U Собачья жизнь 2 / A Dog's Journey (2019) BDRip 1080p от HDReactor | iTunes 5.71 GB ↑ 248 ↓ 155
2019-08-22 U Собачья жизнь 2 / A Dog's Journey (2019) BDRip от MegaPeer | iTunes 1.46 GB ↑ 269 ↓ 114

Отзывы
Зарегистрируйтесь чтобы добавить комментарий.
Обратная связь
Copyleft ©