↑↓Torrent.by
Поиск
Логин: Регистрация
Пароль: Восстановить пароль
Загрузка...

Собачья жизнь 2 / A Dog's Journey (2019) BDRip | iTunes

Скачать sobachya-zhizn-2-a-dog-s-journey-2019-bdrip-itunes.torrent
U Магнитная ссылка Размер: 2.18 GB Раздают: 97 Качают: 18 Добавлен: 2019-08-23 08:46:56
Собачья жизнь 2 / A Dog's Journey (2019) BDRip | iTunes

Название: Собачья жизнь 2
Оригинальное название: A Dog's Journey
Год выпуска: 2019
Жанр:  Фэнтези, драма, комедия, приключения, семейный
Режиссер: Гейл Манкусо
В ролях: Дэннис Куэйд, Эбби Райдер Фортсон, Бетти Гилпин, Кэтрин Прескотт, Марг Хельгенбергер, Джош Гэд, Джейк Мэнли, Даниэла Барбоза, Йен Чен, Генри Лау, Эмма Фольк, Джонни Галэки

О фильме: Старый пес Бадди прожил несколько жизней, прежде чем воссоединиться со своим первым хозяином. Но на этом цепь его перерождений не оборвалась. Он возвращается в теле щенка, получает кличку Молли и выполняет новую миссию – принести счастье проблемной девочке-подростку СиДжей.

Страна: Индия, Гонконг, США, Китай
Студия: DreamWorks, Walden Media, Amblin Entertainment
Продолжительность: 01:48:39
Перевод: Дублированный | iTunes

Файл
Качество: BDRip | A.Dog's.Journey.2019.1080p.BluRay.REMUX.AVC.TrueHD7.1-iFT
Формат: AVI
Видео: 720x304 (2.37:1), 23.976 fps, XviD build 73 ~2082 kbps avg, 0.40 bit/pixel
Аудио 1: 48 kHz, AC3 Dolby Digital, 3/2 (L,C,R,l,r) + LFE ch, ~384 kbps | RUS
Аудио 2: 48 kHz, AC3 Dolby Digital, 3/2 (L,C,R,l,r) + LFE ch, ~384 kbps | ENG
Субтитры: Русские (forced), английские (full, SDH) - отдельно


[+] MediaInfo
Формат                                   : AVI
Формат/Информация                        : Audio Video Interleave
Профиль формата                          : OpenDML
Размер файла                             : 2,18 Гбайт
Продолжительность                        : 1 ч. 48 м.
Общий поток                              : 2868 Кбит/сек
Название фильма                          : Собачья жизнь 2_2019_BDRip_2.18
Программа кодирования                    : VirtualDubMod 1.5.10.3 | (build 2550/release)
Авторское право                          : порошков

Видео
Идентификатор                            : 0
Формат                                   : MPEG-4 Visual
Профиль формата                          : Advanced Simple@L5
Настройки формата                        : BVOP1 / Custom Matrix
Параметр BVOP формата                    : 1
Параметр QPel формата                    : Нет
Параметр GMC формата                     : Без точки перехода
Параметр матрицы формата                 : Выборочная
Идентификатор кодека                     : XVID
Идентификатор кодека/Подсказка           : XviD
Продолжительность                        : 1 ч. 48 м.
Битрейт                                  : 2082 Кбит/сек
Ширина                                   : 720 пикселей
Высота                                   : 304 пикселя
Соотношение сторон                       : 2,35:1
Частота кадров                           : 23,976 (24000/1001) кадра/сек
Цветовое пространство                    : YUV
Субдискретизация насыщенности            : 4:2:0
Битовая глубина                          : 8 бит
Тип развёртки                            : Прогрессивная
Метод сжатия                             : С потерями
Бит/(Пиксели*Кадры)                      : 0.397
Размер потока                            : 1,58 Гбайт (73%)
Библиотека кодирования                   : XviD 73

Аудио #1
Идентификатор                            : 1
Формат                                   : AC-3
Формат/Информация                        : Audio Coding 3
Коммерческое название                    : Dolby Digital
Идентификатор кодека                     : 2000
Продолжительность                        : 1 ч. 48 м.
Вид битрейта                             : Постоянный
Битрейт                                  : 384 Кбит/сек
Каналы                                   : 6 каналов
ChannelLayout                            : L R C LFE Ls Rs
Частота                                  : 48,0 КГц
Частота кадров                           : 31,250 кадров/сек (1536 SPF)
Битовая глубина                          : 16 бит
Метод сжатия                             : С потерями
Размер потока                            : 298 Мбайт (13%)
Выравнивание                             : Разделение по промежуткам
Продолжительность промежутка             : 42  мс. (1,00 видеокадр)
Время предзагрузки промежутка            : 500  мс.
Заголовок                                : Rus

Аудио #2
Идентификатор                            : 2
Формат                                   : AC-3
Формат/Информация                        : Audio Coding 3
Коммерческое название                    : Dolby Digital
Идентификатор кодека                     : 2000
Продолжительность                        : 1 ч. 48 м.
Вид битрейта                             : Постоянный
Битрейт                                  : 384 Кбит/сек
Каналы                                   : 6 каналов
ChannelLayout                            : L R C LFE Ls Rs
Частота                                  : 48,0 КГц
Частота кадров                           : 31,250 кадров/сек (1536 SPF)
Битовая глубина                          : 16 бит
Метод сжатия                             : С потерями
Размер потока                            : 298 Мбайт (13%)
Выравнивание                             : Разделение по промежуткам
Продолжительность промежутка             : 42  мс. (1,00 видеокадр)
Время предзагрузки промежутка            : 500  мс.
Заголовок                                : Eng



Скриншоты:
[+] Всего файлов в раздаче - 4:
Собачья жизнь 2_2019_BDRip_2.18.avi2.18 GB
Собачья жизнь 2_2019_BDRip_2.18_eng full.srt116.74 kB
Собачья жизнь 2_2019_BDRip_2.18_eng SDH.srt132.70 kB
Собачья жизнь 2_2019_BDRip_2.18_rus forced.srt1.05 kB

Показать еще раздачи по запросу собачья:
2019-08-24 U Собачья жизнь 2 / A Dog's Journey (2019) BDRip от Twister & ExKinoRay | iTunes 1.41 GB ↑ 67 ↓ 10
2019-08-23 U Собачья жизнь 2 / A Dog's Journey (2019) BDRip от MegaPeer | iTunes 745.84 MB ↑ 56 ↓ 8
2019-08-22 U Собачья жизнь 2 / A Dog's Journey (2019) HDRip от ExKinoRay | iTunes 746.13 MB ↑ 35 ↓ 20
2019-08-22 U Собачья жизнь 2 / A Dog's Journey (2019) BDRip-AVC от OlLanDGroup | iTunes 1.65 GB ↑ 37 ↓ 14
2019-08-22 U Собачья жизнь 2 / A Dog's Journey (2019) BDRip-AVC от ExKinoRay | iTunes 1К1.97 GB ↑ 58 ↓ 36
2019-08-22 U Собачья жизнь 2 / A Dog's Journey (2019) BDRip 1080p от HDReactor | iTunes 5.71 GB ↑ 248 ↓ 155
2019-08-22 U Собачья жизнь 2 / A Dog's Journey (2019) BDRip от MegaPeer | iTunes 1.46 GB ↑ 269 ↓ 114

Отзывы
Зарегистрируйтесь чтобы добавить комментарий.
Обратная связь
Copyleft ©