↑↓Torrent.by
Поиск
Логин: Регистрация
Пароль: Восстановить пароль
Загрузка...

Робот 2.0 / 2.0 (2018) WEB-DL 1080p | iTunes

Скачать robot-2-0-2018-web-dl-1080p-itunes.torrent
U Магнитная ссылка Размер: 3.52 GB Раздают: 161 Качают: 61 Добавлен: 2019-08-25 05:33:52
Робот 2.0 / 2.0 (2018) WEB-DL 1080p | iTunes

Название: Робот 2.0
Оригинальное название: 2.0
Год выхода: 2018
Жанр: Фантастика, боевик, триллер, комедия
Страна: Индия
Перевод: Дублированный | iTunes
Продолжительность: 01:40:18
Режиссер: С. Шанкар
В ролях: Раджиникант, Акшай Кумар, Эми Джексон, Адиль Хуссэйн, Суданшу Пандей, Калабхаван Шаджон, Анант Нараян Махадеван, Майилсами, Ишари Ганеш, Кайзаад Котваль и др.
Роли дублировали: Никита Джигурда, Пётр Иващенко, Олег Фёдоров, Василиса Ушакова, Дмитрий Стрелков.

О фильме: Миру угрожает монструозный крылатый злодей, покусившийся на самое святое, что есть у человечества — мобильные телефоны. Бессовестное чудовище в прямом смысле слова подчиняет себе устройства и создаёт из них могучую армию, способную трансформироваться во что угодно. Так и проиграли бы люди этот неравный бой, если бы не другое важное изобретение — робот Читти.

Файл
Качество: WEB-DL 1080p
Видео: MPEG-4 AVC, 1920x806, 4643 kbps, 24,000 fps
Звук: русский, AC3, 5.1 ch, 48 kHz, 384 kbps | iTunes
Субтитры: нет

Релиз:


[+] MI
Общее
Уникальный идентификатор                 : 202474328355738938332839212458325608350 (0x9853231F362AFEE9BDD4A40D7B84879E)
Полное имя                               : E:Torrent2Robot20WEBDL1080p.mkv
Формат                                   : Matroska
Версия формата                           : Version 4 / Version 2
Размер файла                             : 3,52 Гбайт
Продолжительность                        : 1 ч. 40 м.
Общий поток                              : 5029 Кбит/сек
Дата кодирования                         : UTC 2019-08-24 18:36:51
Программа кодирования                    : mkvmerge v9.5.0 ('Quiet Fire') 64bit
Библиотека кодирования                   : libebml v1.3.4 + libmatroska v1.4.5

Видео
Идентификатор                            : 1
Формат                                   : AVC
Формат/Информация                        : Advanced Video Codec
Профиль формата                          : High@L4
Настройки формата                        : CABAC / 5 Ref Frames
Параметр CABAC формата                   : Да
Параметр RefFrames формата               : 5 кадров
Параметр GOP формата                     : N=1
Идентификатор кодека                     : V_MPEG4/ISO/AVC
Продолжительность                        : 1 ч. 40 м.
Битрейт                                  : 4643 Кбит/сек
Ширина                                   : 1920 пикселей
Высота                                   : 806 пикселей
Соотношение сторон                       : 2,40:1
Режим частоты кадров                     : Постоянный
Частота кадров                           : 24,000 кадра/сек
Цветовое пространство                    : YUV
Субдискретизация насыщенности            : 4:2:0
Битовая глубина                          : 8 бит
Тип развёртки                            : Прогрессивная
Бит/(Пиксели*Кадры)                      : 0.125
Размер потока                            : 3,25 Гбайт (92%)
Заголовок                                : Sisendrovich(R)
Язык                                     : English
Default                                  : Да
Forced                                   : Нет
Цветовой диапазон                        : Limited
Основные цвета                           : BT.709
Характеристики трансфера                 : BT.709
Коэффициенты матрицы                     : BT.709

Аудио
Идентификатор                            : 2
Формат                                   : AC-3
Формат/Информация                        : Audio Coding 3
Параметр Endianness формата              : Big
Идентификатор кодека                     : A_AC3
Продолжительность                        : 1 ч. 40 м.
Вид битрейта                             : Постоянный
Битрейт                                  : 384 Кбит/сек
Каналы                                   : 6 каналов
Расположение каналов                     : Front: L C R, Side: L R, LFE
Частота                                  : 48,0 КГц
Частота кадров                           : 31,250 кадров/сек (1536 SPF)
Битовая глубина                          : 16 бит
Метод сжатия                             : С потерями
Задержка видео                           : -42 мс.
Размер потока                            : 275 Мбайт (8%)
Язык                                     : Russian
Default                                  : Да
Forced                                   : Нет

Меню
00:00:00.000                             : en:Глава 1
00:08:01.625                             : en:Глава 2
00:15:01.875                             : en:Глава 3
00:20:19.083                             : en:Глава 4
00:26:28.499                             : en:Глава 5
00:32:11.332                             : en:Глава 6
00:37:38.248                             : en:Глава 7
00:42:10.498                             : en:Глава 8
00:47:46.123                             : en:Глава 9
00:52:35.248                             : en:Глава 10
00:57:21.539                             : en:Глава 11
01:02:43.997                             : en:Глава 12
01:07:24.288                             : en:Глава 13
01:13:21.579                             : en:Глава 14
01:19:31.579                             : en:Глава 15
01:25:54.120                             : en:Глава 16




Скриншоты:
[+] Всего файлов в раздаче - 1:
Robot20WEBDL1080p.mkv3.52 GB

Похожие раздачи по запросу - робот:
2019-08-26 U Робот 2.0 / 2.0 (2018) WEB-DLRip-AVC от ExKinoRay | iTunes 746.79 MB ↑ 79 ↓ 20
2019-08-26 U Робот 2.0 / 2.0 (2018) WEB-DLRip-AVC | iTunes 1.66 GB ↑ 60 ↓ 28
2019-08-25 U Робот 2.0 / 2.0 (2018) WEB-DLRip | iTunes 1.43 GB ↑ 71 ↓ 19
2019-05-24 U Толя-робот [01-04 из 08] (2019) WEBRip-AVC от Files-x 2.37 GB ↑ 84 ↓ 92

Отзывы
Зарегистрируйтесь чтобы добавить комментарий.
Обратная связь
Copyleft ©