↑↓Torrent.by
Поиск
Логин: Регистрация
Пароль: Восстановить пароль
Загрузка...

Робот 2.0 / 2.0 (2018) WEB-DLRip | iTunes

Скачать robot-2-0-2018-web-dlrip-itunes.torrent
U Магнитная ссылка Размер: 1.43 GB Раздают: 68 Качают: 18 Добавлен: 2019-08-25 05:34:03
Робот 2.0 / 2.0 (2018) WEB-DLRip | iTunes

Название: Робот 2.0
Оригинальное название: 2.0
Год выхода: 2018
Жанр: Фантастика, боевик, триллер, комедия
Страна: Индия
Перевод: Дублированный | iTunes
Продолжительность: 01:40:18
Режиссер: С. Шанкар
В ролях: Раджиникант, Акшай Кумар, Эми Джексон, Адиль Хуссэйн, Суданшу Пандей, Калабхаван Шаджон, Анант Нараян Махадеван, Майилсами, Ишари Ганеш, Кайзаад Котваль и др.
Роли дублировали: Никита Джигурда, Пётр Иващенко, Олег Фёдоров, Василиса Ушакова, Дмитрий Стрелков.

О фильме: Миру угрожает монструозный крылатый злодей, покусившийся на самое святое, что есть у человечества — мобильные телефоны. Бессовестное чудовище в прямом смысле слова подчиняет себе устройства и создаёт из них могучую армию, способную трансформироваться во что угодно. Так и проиграли бы люди этот неравный бой, если бы не другое важное изобретение — робот Читти.

Файл
Формат: AVI
Качество: WEB-DLRip
Видео: Xvid73, 720x304, 1838kbps, 24,000 fps
Звук: русский, AC3, 2.0 ch, 48 kHz, 192 kbps | iTunes
Субтитры: нет

Рип и релиз от:


[+] MI
Общее
Полное имя                               : E:Torrent2Robot20WEBDLRip.avi
Формат                                   : AVI
Формат/Информация                        : Audio Video Interleave
Профиль формата                          : OpenDML
Размер файла                             : 1,43 Гбайт
Продолжительность                        : 1 ч. 40 м.
Общий поток                              : 2042 Кбит/сек
Программа кодирования                    : XviD4PSP 6.0 / 53.6.0

Видео
Идентификатор                            : 0
Формат                                   : MPEG-4 Visual
Профиль формата                          : Advanced Simple@L5
Настройки формата                        : BVOP1 / Custom Matrix
Параметр BVOP формата                    : 1
Параметр QPel формата                    : Нет
Параметр GMC формата                     : Без точки перехода
Параметр матрицы формата                 : Выборочная
Идентификатор кодека                     : XVID
Идентификатор кодека/Подсказка           : XviD
Продолжительность                        : 1 ч. 40 м.
Битрейт                                  : 1838 Кбит/сек
Ширина                                   : 720 пикселей
Высота                                   : 304 пикселя
Соотношение сторон                       : 2,35:1
Частота кадров                           : 24,000 кадра/сек
Цветовое пространство                    : YUV
Субдискретизация насыщенности            : 4:2:0
Битовая глубина                          : 8 бит
Тип развёртки                            : Прогрессивная
Метод сжатия                             : С потерями
Бит/(Пиксели*Кадры)                      : 0.350
Размер потока                            : 1,29 Гбайт (90%)
Библиотека кодирования                   : XviD 73

Аудио
Идентификатор                            : 1
Формат                                   : AC-3
Формат/Информация                        : Audio Coding 3
Параметр Endianness формата              : Big
Идентификатор кодека                     : 2000
Продолжительность                        : 1 ч. 40 м.
Вид битрейта                             : Постоянный
Битрейт                                  : 192 Кбит/сек
Каналы                                   : 2 канала
Расположение каналов                     : Front: L R
Частота                                  : 48,0 КГц
Частота кадров                           : 31,250 кадров/сек (1536 SPF)
Битовая глубина                          : 16 бит
Метод сжатия                             : С потерями
Размер потока                            : 138 Мбайт (9%)
Выравнивание                             : Соединение по промежуткам
Продолжительность промежутка             : 32  мс. (0,77 видеокадр)




Скриншоты:
[+] Всего файлов в раздаче - 1:
Robot20WEBDLRip.avi1.43 GB

Похожие раздачи по запросу - робот:
2019-08-26 U Робот 2.0 / 2.0 (2018) WEB-DLRip-AVC от ExKinoRay | iTunes 746.79 MB ↑ 72 ↓ 19
2019-08-26 U Робот 2.0 / 2.0 (2018) WEB-DLRip-AVC | iTunes 1.66 GB ↑ 59 ↓ 28
2019-08-25 U Робот 2.0 / 2.0 (2018) WEB-DL 1080p | iTunes 3.52 GB ↑ 108 ↓ 60
2019-05-31 U Толя-робот [01-08 из 08] (2019) WEBRip-AVC от Files-x 4.56 GB ↑ 91 ↓ 105
2019-05-24 U Толя-робот [01-04 из 08] (2019) WEBRip-AVC от Files-x 2.37 GB ↑ 84 ↓ 92

Отзывы
Зарегистрируйтесь чтобы добавить комментарий.
Обратная связь
Copyleft ©