↑↓Torrent.by
Поиск
Логин: Регистрация
Пароль: Восстановить пароль
Загрузка...

Ментовские войны. Харьков [02х01-04 из 32] (2019) WEB-DLRip от Files-x

Скачать mentovskie-voyny-harkov-02h01-04-iz-32-2019-web-dlrip-ot-files-x.torrent
U Магнитная ссылка Размер: 2.25 GB Раздают: 28 Качают: 4 Добавлен: 2019-08-25 05:35:17
Ментовские войны. Харьков [02х01-04 из 32] (2019) WEB-DLRip от Files-x

Оригинальное название: Ментовские войны. Харьков
Год выхода: 2019
Жанр: Детектив, криминал, боевик
Режиссер: Валерий Рожко, Тарас Рыбальченко
В ролях: Артем Позняк, Богдан Юсипчук, Сергей Листунов, Танита Малкова (Татьяна Ожелевская), Анастасия Рула, Ирина Гулей

О фильме:
Ментовские войны. Харьков-2 - это продолжение остросюжетного сериала про борьбу принципиальных оперативников против криминальной жизни родного города, в которой завязаны не только опытные преступники, но и «оборотни в погонах». Решительного и волевого руководителя уголовного розыска Андрея Гордиенко переводят в качестве обычного оперативника в районное отделение, где его встречают с неприязнью и недоверием. Но Гордиенко это не волнует, он берется за серию расследований и вместе с бывшими подчиненными, а сейчас настоящими друзьями, Богданом Харченко и Дмитрием Вороновым, пытается отомстить врагам, разоблачая преступность в рядах чиновников-коррупционеров.

Страна: Украина
Студия: 1+1 Продакшн" по заказу телеканала 2+2
Продолжительность: 4 х 00:45:00
Перевод: Не требуется

Файл
Кодек: XviD
Качество: WEB-DLRip
Видео: XviD, ~ 1623 Кбит/с, 720x400, 25 кадр/с
Звук: AC3, 2 ch, 192 Кбит/с

Релиз:
[+] Содержание

41-44 (1-4) серия "По чужим правилам"
45-48 (5-8) серия ""
49-52 (9-12) серия ""
53-56 (13-16) серия ""
57-60 (17-20) серия ""
61-64 (21-24) серия ""
65-68 (25-28) серия ""
69-72 (29-32) серия ""



[+] MediaInfo

General
Complete name                    : C:41.Ментовские войны. Харьков.s02.E01.(2019).WEB-DLRip.by.Nicodem.Files-x.avi
Format                           : AVI
Format/Info                      : Audio Video Interleave
File size                        : 590 MiB
Duration                         : 45mn 12s
Overall bit rate                 : 1 824 Kbps
Writing application              : VirtualDubMod 1.5.10.3 | www.virtualdub-fr.org || (build 2550/release)
Writing library                  : VirtualDubMod build 2550/release

Video
ID                               : 0
Format                           : MPEG-4 Visual
Format profile                   : Advanced Simple@L5
Format settings, BVOP            : 1
Format settings, QPel            : No
Format settings, GMC             : No warppoints
Format settings, Matrix          : Custom
Codec ID                         : XVID
Codec ID/Hint                    : XviD
Duration                         : 45mn 12s
Bit rate                         : 1 623 Kbps
Width                            : 720 pixels
Height                           : 400 pixels
Display aspect ratio             : 16:9
Frame rate                       : 25.000 fps
Color space                      : YUV
Chroma subsampling               : 4:2:0
Bit depth                        : 8 bits
Scan type                        : Progressive
Compression mode                 : Lossy
Bits/(Pixel*Frame)               : 0.225
Stream size                      : 525 MiB (89%)
Writing library                  : XviD 73

Audio
ID                               : 1
Format                           : AC-3
Format/Info                      : Audio Coding 3
Mode extension                   : CM (complete main)
Codec ID                         : 2000
Duration                         : 45mn 12s
Bit rate mode                    : Constant
Bit rate                         : 192 Kbps
Channel(s)                       : 2 channels
Channel positions                : Front: L R
Sampling rate                    : 48.0 KHz
Bit depth                        : 16 bits
Compression mode                 : Lossy
Stream size                      : 62.1 MiB (11%)
Alignment                        : Split accross interleaves
Interleave, duration             : 40 ms (1.00 video frame)
Interleave, preload duration     : 500 ms



Скриншоты:
[+] Всего файлов в раздаче - 4:
42.Ментовские войны. Харьков.s02.E02.(2019).WEB-DLRip.by.Nicodem.Files-x.avi560.25 MB
44.Ментовские войны. Харьков.s02.E04.(2019).WEB-DLRip.by.Nicodem.Files-x.avi560.36 MB
43.Ментовские войны. Харьков.s02.E03.(2019).WEB-DLRip.by.Nicodem.Files-x.avi589.86 MB
41.Ментовские войны. Харьков.s02.E01.(2019).WEB-DLRip.by.Nicodem.Files-x.avi589.96 MB

Похожие раздачи по запросу - ментовские:
2019-08-22 U Ментовские войны. Харьков [02х01-03 из 32] (2019) WEB-DLRip от Files-x 1.70 GB ↑ 28 ↓ 29
2019-08-21 U Ментовские войны. Харьков [02х01-02 из 32] (2019) WEB-DLRip от Files-x 1.12 GB ↑ 40 ↓ 18
2017-10-03 U Ментовские войны. Киев [01-04 из 32] (2017) WEB-DLRip от Files-x 2.34 GB ↑ 106 ↓ 98

Отзывы
Зарегистрируйтесь чтобы добавить комментарий.
Обратная связь
Copyleft ©