↑↓Torrent.by
Поиск
Логин: Регистрация
Пароль: Восстановить пароль
Загрузка...

Три короля / Three Kings (1999) WEB-DLRip-AVC | D | Open Matte

Скачать tri-korolya-three-kings-1999-web-dlrip-avc-d-open-matte.torrent
U Магнитная ссылка Размер: 3.53 GB Раздают: 21 Качают: 17 Добавлен: 2019-08-25 05:35:35
Три короля / Three Kings (1999) WEB-DLRip-AVC | D | Open Matte

Название: Три короля
Оригинальное название: Three Kings
Год выпуска: 1999
Жанр:  боевик, драма, комедия, приключения, военный
Режиссер: Дэвид О. Расселл
В ролях: Джордж Клуни (Archie Gates), Марк Уолберг (Troy Barlow), Айс Кьюб (Chief Elgin), Спайк Джонс (Conrad Vig), Клифф Кёртис (Amir Abdulah), Нора Данн (Adriana Cruz), Джейми Кеннеди (Walter Wogaman), Саид Тагмауи (Captain Said), Майкелти Уильямсон (Colonel Horn), Холт МакКэллани (Captain Van Meter), Джуди Грир (Cathy Daitch), Кристофер Лор (Teebaux)

О фильме:
Ирак, март 1991-го года. Американцы празднуют победу - изгнание войск Саддама Хусейна из Кувейта. Капитан спецподразделения Арчи Гейтс и трое его подчиненных совершенно случайно становятся обладателями секретной карты, найденной в... заднем проходе одного из иракских воинов. Ценность ее заключается в том, что на карте указано место, где спрятано золото Саддама, награбленное в Кувейте.

MPAA: R - Лицам до 17 лет обязательно присутствие взрослого

Страна: США
Студия: Atlas Entertainment, Coast Ridge, Junger Witt Productions
Продолжительность: 01:54:54
Перевод: Профессиональный (дублированный) Blu-ray EUR
Субтитры: Russian, English (SDH)

Файл
Формат: Matroska
Качество: WEB-DLRip-AVC | Open Matte | Amazon
Видео: 1024x576 at 23.976 fps, x264, ~3500 kbps, 0.247 bpp
Аудио #1: AC3, 6 ch, ~448 kbps - RUS
Аудио #2: AC3, 6 ch, ~448 kbps - ENG
Формат субтитров: softsub (SRT)

***Релиз от: -=DoMiNo=-





[+] M/I
x264 info: frame I:1302  Avg QP:16.53  size: 85280
x264 info: frame P:45658 Avg QP:19.96  size: 31484
x264 info: frame B:118335 Avg QP:21.48  size: 11992
x264 info: consecutive B-frames:  4.7%  6.9% 12.9% 36.3% 15.9% 18.0%  2.4%  1.8%  1.1%

General
Format                      : Matroska
Format version              : Version 4
File size                   : 3.53 GiB
Duration                    : 1 h 54 min
Overall bit rate            : 4 397 kb/s
Movie name                  : Три короля.(1999).WEB-DLRip-AVC.O.M.[-=DoMiNo=-]
Encoded date                : UTC 2019-08-24 08:18:59
Writing application         : mkvmerge v36.0.0 ('Is That Jazz?') 64-bit
Writing library             : libebml v1.3.9 + libmatroska v1.5.2
Attachments                 : poster / poster

Video
ID                          : 1
Format                      : AVC
Format/Info                 : Advanced Video Codec
Format profile              : High@L4.1
Format settings             : CABAC / 12 Ref Frames
Format settings, CABAC      : Yes
Format settings, Reference  : 12 frames
Codec ID                    : V_MPEG4/ISO/AVC
Duration                    : 1 h 54 min
Bit rate                    : 3 500 kb/s
Width                       : 1 024 pixels
Height                      : 576 pixels
Display aspect ratio        : 16:9
Frame rate mode             : Constant
Frame rate                  : 23.976 (24000/1001) FPS
Color space                 : YUV
Chroma subsampling          : 4:2:0
Bit depth                   : 8 bits
Scan type                   : Progressive
Bits/(Pixel*Frame)          : 0.247
Stream size                 : 2.81 GiB (80%)
Title                       : RIP_BY_-=DoMiNo=-
Writing library             : x264 core 157 r2958 57baac4
Encoding settings           : cabac=1 / ref=12 / deblock=1:-2:-2 / analyse=0x3:0x133 / me=umh / subme=10 / psy=1 / psy_rd=1.00:0.20 / mixed_ref=1 / me_range=32 / chroma_me=1 / trellis=2 / 8x8dct=1 / cqm=0 / deadzone=21,11 / fast_pskip=0 / chroma_qp_offset=-3 / threads=6 / lookahead_threads=1 / sliced_threads=0 / nr=0 / decimate=0 / interlaced=0 / bluray_compat=0 / constrained_intra=0 / bframes=8 / b_pyramid=2 / b_adapt=2 / b_bias=0 / direct=3 / weightb=1 / open_gop=0 / weightp=2 / keyint=240 / keyint_min=24 / scenecut=40 / intra_refresh=0 / rc_lookahead=60 / rc=2pass / mbtree=1 / bitrate=3500 / ratetol=1.0 / qcomp=0.75 / qpmin=0 / qpmax=69 / qpstep=4 / cplxblur=20.0 / qblur=0.5 / ip_ratio=1.40 / aq=1:0.70
Language                    : English
Default                     : Yes
Forced                      : No
Color range                 : Limited
Color primaries             : BT.709
Transfer characteristics    : BT.709
Matrix coefficients         : BT.709

Audio #1
ID                          : 2
Format                      : AC-3
Format/Info                 : Audio Coding 3
Commercial name             : Dolby Digital
Codec ID                    : A_AC3
Duration                    : 1 h 54 min
Bit rate mode               : Constant
Bit rate                    : 448 kb/s
Channel(s)                  : 6 channels
Channel layout              : L R C LFE Ls Rs
Sampling rate               : 48.0 kHz
Frame rate                  : 31.250 FPS (1536 SPF)
Bit depth                   : 16 bits
Compression mode            : Lossy
Stream size                 : 368 MiB (10%)
Title                       : DUB_|Blu-ray EUR|
Language                    : Russian
Service kind                : Complete Main
Default                     : Yes
Forced                      : No

Audio #2
ID                          : 3
Format                      : AC-3
Format/Info                 : Audio Coding 3
Commercial name             : Dolby Digital
Codec ID                    : A_AC3
Duration                    : 1 h 54 min
Bit rate mode               : Constant
Bit rate                    : 448 kb/s
Channel(s)                  : 6 channels
Channel layout              : L R C LFE Ls Rs
Sampling rate               : 48.0 kHz
Frame rate                  : 31.250 FPS (1536 SPF)
Bit depth                   : 16 bits
Compression mode            : Lossy
Stream size                 : 368 MiB (10%)
Title                       : ENG_|Blu-ray|
Language                    : English
Service kind                : Complete Main
Default                     : No
Forced                      : No

Text #1
ID                          : 4
Format                      : UTF-8
Codec ID                    : S_TEXT/UTF8
Codec ID/Info               : UTF-8 Plain Text
Duration                    : 1 h 53 min
Bit rate                    : 80 b/s
Count of elements           : 1320
Stream size                 : 67.1 KiB (0%)
Language                    : Russian
Default                     : No
Forced                      : No

Text #2
ID                          : 5
Format                      : UTF-8
Codec ID                    : S_TEXT/UTF8
Codec ID/Info               : UTF-8 Plain Text
Duration                    : 1 h 48 min
Bit rate                    : 68 b/s
Count of elements           : 1538
Stream size                 : 54.3 KiB (0%)
Title                       : SDH
Language                    : English
Default                     : No
Forced                      : No

Menu
00:00:00.000                : :Глава 1
00:04:29.144                : :Глава 2
00:10:31.005                : :Глава 3
00:17:23.459                : :Глава 4
00:21:11.395                : :Глава 5
00:26:42.184                : :Глава 6
00:35:04.643                : :Глава 7
00:41:37.912                : :Глава 8
00:46:55.729                : :Глава 9
00:52:07.916                : :Глава 10
00:56:46.486                : :Глава 11
01:02:05.680                : :Глава 12
01:07:13.988                : :Глава 13
01:13:32.825                : :Глава 14
01:21:34.056                : :Глава 15
01:27:16.231                : :Глава 16
01:34:21.364                : :Глава 17
01:39:55.823                : :Глава 18
01:44:39.606                : :Глава 19
01:49:28.687                : :Глава 20



Скриншоты:
[+] Всего файлов в раздаче - 1:
Три короля.(1999).WEB-DLRip-AVC.O.M.[-=DoMiNo=-].mkv3.53 GB

Похожие раздачи по запросу - короля:
2019-08-25 U Три короля / Three Kings (1999) WEB-DLRip | D | Open Matte 1.46 GB ↑ 19 ↓ 8
2019-07-14 U Тамплиеры: жертвы проклятого короля? / Les Templiers: victimes d'un roi maudit? (2012) DVB | P1 1.09 GB ↑ 34 ↓ 10
2017-08-17 U Меч короля Артура / King Arthur: Legend of the Sword (2017) BDRip 1080p от HELLYWOOD | Лицензия 1К7.60 GB ↑ 149 ↓ 76
2017-07-28 U Меч короля Артура / King Arthur: Legend of the Sword (2017) HDRip от Scarabey | iTunes 1К2.12 GB ↑ 1263 ↓ 92
2017-05-24 U Меч короля Артура / King Arthur: Legend of the Sword (2017) TS | D 2.05 GB ↑ 702 ↓ 203

Отзывы
Зарегистрируйтесь чтобы добавить комментарий.
Обратная связь
Copyleft ©