↑↓Torrent.by
Поиск
Логин: Регистрация
Пароль: Восстановить пароль
Загрузка...

Робот 2.0 / 2.0 (2018) WEB-DLRip-AVC | iTunes

Скачать robot-2-0-2018-web-dlrip-avc-itunes.torrent
U Магнитная ссылка Размер: 1.66 GB Раздают: 60 Качают: 28 Добавлен: 2019-08-26 07:48:58
Робот 2.0 / 2.0 (2018) WEB-DLRip-AVC | iTunes

Название: Робот 2.0
Оригинальное название: 2.0
Год выхода: 2018
Жанр:  Фантастика, боевик, триллер, комедия
Режиссер: С. Шанкар
В ролях: Раджиникант, Акшай Кумар, Эми Джексон, Адиль Хуссэйн, Суданшу Пандей, Калабхаван Шаджон, Анант Нараян Махадеван, Майилсами, Ишари Ганеш, Кайзаад Котваль и др.
Роли дублировали: Никита Джигурда, Пётр Иващенко, Олег Фёдоров, Василиса Ушакова, Дмитрий Стрелков.

О фильме:
Миру угрожает монструозный крылатый злодей, покусившийся на самое святое, что есть у человечества — мобильные телефоны. Бессовестное чудовище в прямом смысле слова подчиняет себе устройства и создаёт из них могучую армию, способную трансформироваться во что угодно. Так и проиграли бы люди этот неравный бой, если бы не другое важное изобретение — робот Читти.

Страна: Индия
Перевод: Дублированный | iTunes
Продолжительность: 01:40:18
Субтитры: нет

Файл                                      
Формат: Matroska
Качество: WEB-DLRip-AVC
Видео: 972x408 at 24,000 fps, x264, ~1937 kbps, 0.204 bpp
Аудио: AC3, 6 ch, ~384 kbps - | Русский | -

***Релиз от: -=DoMiNo=-


[+] M/I
General
Complete name               : Робот 2.0.(2018).WEB-DLRip-AVC.[-=DoMiNo=-].mkv
Format                      : Matroska
Format version              : Version 4
File size                   : 1.66 GiB
Duration                    : 1 h 40 min
Overall bit rate            : 2 368 kb/s
Movie name                  : Робот 2.0
Deion                 : Миру угрожает монструозный крылатый злодей, покусившийся на самое святое, что есть у человечества - мобильные телефоны. Бессовестное чудовище в прямом смысле слова подчиняет себе устройства и создаёт из них могучую армию, способную трансформироваться во что угодно. Так и проиграли бы люди этот неравный бой, если бы не другое важное изобретение - робот Читти.
Attachments                 : poster / poster
ACTORS                      : Раджиникант, Акшай Кумар, Эми Джексон, Адиль Хуссэйн, Суданшу Пандей, Калабхаван Шаджон, Анант Нараян Махадеван, Майилсами, Ишари Ганеш, Кайзаад Котваль
COUNTRY                     : Индия
DIRECTOR                    : С. Шанкар
GENRE                       : Фантастика, Боевик, Триллер
ORIGINAL_TITLE              : 2.0

Video
ID                          : 1
Format                      : AVC
Format/Info                 : Advanced Video Codec
Format profile              : High@L4.1
Format settings             : CABAC / 10 Ref Frames
Format settings, CABAC      : Yes
Format settings, Reference  : 10 frames
Codec ID                    : V_MPEG4/ISO/AVC
Duration                    : 1 h 40 min
Bit rate                    : 1 937 kb/s
Width                       : 972 pixels
Height                      : 408 pixels
Display aspect ratio        : 2.40:1
Frame rate mode             : Constant
Frame rate                  : 24.000 FPS
Color space                 : YUV
Chroma subsampling          : 4:2:0
Bit depth                   : 8 bits
Scan type                   : Progressive
Bits/(Pixel*Frame)          : 0.204
Stream size                 : 1.36 GiB (82%)
Title                       : RIP_BY_-=DoMiNo=-
Writing library             : x264 core 157 r2958 57baac4
Encoding settings           : cabac=1 / ref=10 / deblock=1:-1:-1 / analyse=0x3:0x133 / me=umh / subme=11 / psy=1 / psy_rd=1.00:0.00 / mixed_ref=1 / me_range=32 / chroma_me=1 / trellis=2 / 8x8dct=1 / cqm=0 / deadzone=21,11 / fast_pskip=1 / chroma_qp_offset=-2 / threads=6 / lookahead_threads=1 / sliced_threads=0 / nr=0 / decimate=1 / interlaced=0 / bluray_compat=0 / constrained_intra=0 / bframes=10 / b_pyramid=2 / b_adapt=2 / b_bias=0 / direct=1 / weightb=1 / open_gop=0 / weightp=2 / keyint=240 / keyint_min=24 / scenecut=40 / intra_refresh=0 / rc=crf / mbtree=0 / crf=19.0 / qcomp=0.60 / qpmin=0 / qpmax=69 / qpstep=4 / ip_ratio=1.40 / pb_ratio=1.30 / aq=2:1.00
Language                    : English
Default                     : Yes
Forced                      : No
Color range                 : Limited
Color primaries             : BT.709
Transfer characteristics    : BT.709
Matrix coefficients         : BT.709

Audio
ID                          : 2
Format                      : AC-3
Format/Info                 : Audio Coding 3
Commercial name             : Dolby Digital
Codec ID                    : A_AC3
Duration                    : 1 h 40 min
Bit rate mode               : Constant
Bit rate                    : 384 kb/s
Channel(s)                  : 6 channels
Channel layout              : L R C LFE Ls Rs
Sampling rate               : 48.0 kHz
Frame rate                  : 31.250 FPS (1536 SPF)
Bit depth                   : 16 bits
Compression mode            : Lossy
Stream size                 : 275 MiB (16%)
Title                       : DUB_[iTunes]
Language                    : Russian
Service kind                : Complete Main
Default                     : Yes
Forced                      : No

Menu
00:00:00.000                : :Глава 1
00:08:01.625                : :Глава 2
00:15:01.875                : :Глава 3
00:20:19.083                : :Глава 4
00:26:28.499                : :Глава 5
00:32:11.332                : :Глава 6
00:37:38.248                : :Глава 7
00:42:10.498                : :Глава 8
00:47:46.123                : :Глава 9
00:52:35.248                : :Глава 10
00:57:21.539                : :Глава 11
01:02:43.997                : :Глава 12
01:07:24.288                : :Глава 13
01:13:21.579                : :Глава 14
01:19:31.579                : :Глава 15
01:25:54.120                : :Глава 16



Скриншоты:
[+] Всего файлов в раздаче - 1:
Робот 2.0.(2018).WEB-DLRip-AVC.[-=DoMiNo=-].mkv1.66 GB

Похожие раздачи по запросу - робот:
2019-08-25 U Робот 2.0 / 2.0 (2018) WEB-DLRip | iTunes 1.43 GB ↑ 75 ↓ 19
2019-08-25 U Робот 2.0 / 2.0 (2018) WEB-DL 1080p | iTunes 3.52 GB ↑ 161 ↓ 61
2019-05-24 U Толя-робот [01-04 из 08] (2019) WEBRip-AVC от Files-x 2.37 GB ↑ 84 ↓ 92

Отзывы
Зарегистрируйтесь чтобы добавить комментарий.
Обратная связь
Copyleft ©