↑↓Torrent.by
Поиск
Логин: Регистрация
Пароль: Восстановить пароль

Люди в черном: Интернэшнл / Men in Black International (2019) BDRip-HEVC 720p | D | iTunes

Скачать lyudi-v-chernom-interneshnl-men-in-black-international-2019-bdrip-hevc-720p-d-itunes.torrent
U Магнитная ссылка Размер: 2.65 GB Раздают: 333 Качают: 45 Добавлен: 2019-08-26 12:51:34
Люди в черном: Интернэшнл / Men in Black International (2019) BDRip-HEVC 720p | D | iTunes

Название: Люди в черном: Интернэшнл
Оригинальное название: Men in Black International
Год выхода: 2019
Производство: Великобритания, США / Columbia Pictures, Sony Pictures Entertainment (SPE), Amblin Entertainment
Жанр:  Фантастика, боевик, комедия, приключения
Продолжительность: 01:54:49

Режиссер: Ф. Гэри Грей
В ролях: Тесса Томпсон, Крис Хемсворт, Кумэйл Нанджиани, Ребекка Фергюсон (II), Эмма Томпсон, Лиам Нисон, Рейф Сполл, Кайван Новак, Спенсер Уайлдинг, Марси Хэрриэл, Джесс Радомска, Виктория Фэйт, Аня Совински, Инни Клемонс, Стивен Уайт, Джефф Ким

Описание: Люди в черном, тайная организация на страже покоя и безопасности Земли, уже не раз защищали нас от нападения отбросов Вселенной. На этот раз самая большая опасность для мирового сообщества, которой агентам предстоит противостоять — шпион в их рядах.

Качество: BDRip-HEVC 720p
Видео: HEVC/H.265, 1280x640, ~2469 Kbps, 10 bit
Аудио 01: AC3, 6 ch, 384 Kbps | Русский, Дублированный (iTunes)
Аудио 02: AC3, 6 ch, 448 Kbps | Английский, Оригинал
Субтитры: Русские, английские


[+] Mediainfo
x265 info: frame I:   1900, Avg QP:16.21  kb/s: 10753.11
x265 info: frame P:  34716, Avg QP:18.23  kb/s: 5307.50
x265 info: frame B: 128576, Avg QP:20.95  kb/s: 1578.85
x265 info: Weighted P-Frames: Y:7.6% UV:5.6%
x265 info: consecutive B-frames: 8.3% 3.4% 5.4% 48.4% 9.0% 11.5% 4.3% 8.3% 0.6% 0.3% 0.1% 0.4% 0.0% 0.0% 0.0% 0.0% 0.0%
x265 info:
encoded 165192 frames in 39502.07s (4.18 fps), 2467.97 kb/s, Avg QP:20.32

Формат                                   : Matroska
Версия формата                           : Version 4
Размер файла                             : 2,65 Гбайт
Продолжительность                        : 1 ч. 54 м.
Общий поток                              : 3303 Кбит/сек
Название фильма                          : Люди в черном: Интернэшнл (2019) Encoded_by_M@kSIMus
Дата кодирования                         : UTC 2019-08-26 01:26:20
Программа кодирования                    : mkvmerge v30.1.0 ('Forever And More') 64-bit
Библиотека кодирования                   : libebml v1.3.6 + libmatroska v1.4.9
Обложка                                  : Yes
Attachments                              : cover.jpg

Видео
Идентификатор                            : 1
Формат                                   : HEVC
Формат/Информация                        : High Efficiency Video Coding
Профиль формата                          : Main 10@L4.1@High
Идентификатор кодека                     : V_MPEGH/ISO/HEVC
Продолжительность                        : 1 ч. 54 м.
Битрейт                                  : 2469 Кбит/сек
Ширина                                   : 1280 пикселей
Высота                                   : 640 пикселей
Соотношение сторон                       : 2,000
Режим частоты кадров                     : Постоянный
Частота кадров                           : 23,976 (24000/1001) кадра/сек
Цветовое пространство                    : YUV
Субдискретизация насыщенности            : 4:2:0
Битовая глубина                          : 10 бит
Бит/(Пиксели*Кадры)                      : 0.126
Размер потока                            : 1,98 Гбайт (75%)
Библиотека кодирования                   : x265 3.1+7-147fb92c5ed5:[Windows][clang 8.0.0][64 bit] 10bit
Настройки программы                      : cpuid=1049583 / frame-threads=5 / wpp / no-pmode / no-pme / no-psnr / no-ssim / log-level=3 / input-csp=1 / input-res=1280x640 / interlace=0 / total-frames=0 / level-idc=41 / high-tier=1 / uhd-bd=0 / ref=4 / allow-non-conformance / no-repeat-headers / annexb / no-aud / no-hrd / info / hash=0 / no-temporal-layers / open-gop / min-keyint=24 / keyint=240 / gop-lookahead=0 / bframes=16 / b-adapt=2 / b-pyramid / bframe-bias=0 / rc-lookahead=40 / lookahead-slices=0 / scenecut=40 / radl=0 / no-splice / no-intra-refresh / ctu=32 / min-cu-size=8 / no-rect / no-amp / max-tu-size=32 / tu-inter-depth=4 / tu-intra-depth=4 / limit-tu=0 / rdoq-level=2 / dynamic-rd=0.00 / no-ssim-rd / signhide / no-tskip / nr-intra=0 / nr-inter=0 / no-constrained-intra / no-strong-intra-smoothing / max-merge=5 / limit-refs=1 / no-limit-modes / me=3 / subme=7 / merange=57 / temporal-mvp / no-hme / weightp / no-weightb / no-analyze-src-pics / deblock=-3:-3 / no-sao / no-sao-non-deblock / rd=3 / early-skip / no-rskip / no-fast-intra / no-tskip-fast / no-cu-lossless / b-intra / no-splitrd-skip / rdpenalty=0 / psy-rd=2.00 / psy-rdoq=1.00 / no-rd-refine / no-lossless / cbqpoffs=0 / crqpoffs=0 / rc=crf / crf=20.0 / qcomp=0.60 / qpstep=4 / stats-write=0 / stats-read=0 / vbv-maxrate=50000 / vbv-bufsize=50000 / vbv-init=0.9 / crf-max=0.0 / crf-min=0.0 / ipratio=1.40 / pbratio=1.30 / aq-mode=3 / aq-strength=1.00 / no-cutree / zone-count=0 / no-strict-cbr / qg-size=32 / no-rc-grain / qpmax=69 / qpmin=0 / no-const-vbv / sar=1 / overscan=0 / videoformat=5 / range=0 / colorprim=1 / transfer=1 / colormatrix=1 / chromaloc=0 / display-window=0cll=0,0 / min-luma=0 / max-luma=1023 / log2-max-poc-lsb=8 / vui-timing-info / vui-hrd-info / slices=1 / no-opt-qp-pps / no-opt-ref-list-length-pps / no-multi-pass-opt-rps / scenecut-bias=0.05 / no-opt-cu-delta-qp / aq-motion / no-hdr / no-hdr-opt / no-dhdr10-opt / no-idr-recovery-sei / analysis-reuse-level=5 / scale-factor=0 / refine-intra=0 / refine-inter=0 / refine-mv=0 / refine-ctu-distortion=0 / no-limit-sao / ctu-info=0 / no-lowpass-dct / refine-analysis-type=0 / copy-pic=1 / max-ausize-factor=1.0 / no-dynamic-refine / no-single-sei / no-hevc-aq / no-svt / no-field / qp-adaptation-range=1.00
Язык                                     : English
Default                                  : Да
Forced                                   : Нет
Цветовой диапазон                        : Limited
Основные цвета                           : BT.709
Характеристики трансфера                 : BT.709
Коэффициенты матрицы                     : BT.709

Аудио #1
Идентификатор                            : 2
Формат                                   : AC-3
Формат/Информация                        : Audio Coding 3
Коммерческое название                    : Dolby Digital
Идентификатор кодека                     : A_AC3
Продолжительность                        : 1 ч. 54 м.
Вид битрейта                             : Постоянный
Битрейт                                  : 384 Кбит/сек
Каналы                                   : 6 каналов
ChannelLayout                            : L R C LFE Ls Rs
Частота                                  : 48,0 КГц
Частота кадров                           : 31,250 кадров/сек (1536 SPF)
Битовая глубина                          : 16 бит
Метод сжатия                             : С потерями
Размер потока                            : 315 Мбайт (12%)
Заголовок                                : iTunes
Язык                                     : Russian
Default                                  : Да
Forced                                   : Нет

Аудио #2
Идентификатор                            : 3
Формат                                   : AC-3
Формат/Информация                        : Audio Coding 3
Коммерческое название                    : Dolby Digital
Идентификатор кодека                     : A_AC3
Продолжительность                        : 1 ч. 54 м.
Вид битрейта                             : Постоянный
Битрейт                                  : 448 Кбит/сек
Каналы                                   : 6 каналов
ChannelLayout                            : L R C LFE Ls Rs
Частота                                  : 48,0 КГц
Частота кадров                           : 31,250 кадров/сек (1536 SPF)
Битовая глубина                          : 16 бит
Метод сжатия                             : С потерями
Размер потока                            : 368 Мбайт (14%)
Заголовок                                : Original
Язык                                     : English
Default                                  : Нет
Forced                                   : Нет

Текст #1
Идентификатор                            : 4
Формат                                   : UTF-8
Идентификатор кодека                     : S_TEXT/UTF8
Идентификатор кодека/Информация          : UTF-8 Plain Text
Продолжительность                        : 1 ч. 13 м.
Битрейт                                  : 0 бит/сек
ElementCount                             : 15
Размер потока                            : 464 байт (0%)
Заголовок                                : Rus Forced
Язык                                     : Russian
Default                                  : Да
Forced                                   : Да

Текст #2
Идентификатор                            : 5
Формат                                   : UTF-8
Идентификатор кодека                     : S_TEXT/UTF8
Идентификатор кодека/Информация          : UTF-8 Plain Text
Продолжительность                        : 1 ч. 53 м.
Битрейт                                  : 86 бит/сек
ElementCount                             : 1441
Размер потока                            : 72,1 Кбайт (0%)
Заголовок                                : Rus Full
Язык                                     : Russian
Default                                  : Нет
Forced                                   : Нет

Текст #3
Идентификатор                            : 6
Формат                                   : UTF-8
Идентификатор кодека                     : S_TEXT/UTF8
Идентификатор кодека/Информация          : UTF-8 Plain Text
Продолжительность                        : 1 ч. 43 м.
Битрейт                                  : 68 бит/сек
ElementCount                             : 1706
Размер потока                            : 51,7 Кбайт (0%)
Заголовок                                : Eng Full
Язык                                     : English
Default                                  : Нет
Forced                                   : Нет

Меню
00:00:00.000                             : :Chapter 01
00:07:58.686                             : :Chapter 02
00:15:33.098                             : :Chapter 03
00:20:09.583                             : :Chapter 04
00:27:17.135                             : :Chapter 05
00:34:29.650                             : :Chapter 06
00:46:10.267                             : :Chapter 07
00:50:32.028                             : :Chapter 08
00:59:01.204                             : :Chapter 09
01:03:12.914                             : :Chapter 10
01:10:51.412                             : :Chapter 11
01:14:35.929                             : :Chapter 12
01:25:31.209                             : :Chapter 13
01:28:49.574                             : :Chapter 14
01:34:29.246                             : :Chapter 15
01:43:31.830                             : :Chapter 16



Скриншоты:
[+] Всего файлов в раздаче - 1:
Люди в черном Интернэшнл (2019) BDRip 720p [HEVC] 10 bit.mkv2.65 GB

Показать еще раздачи по запросу люди:
2019-12-06 U Александр Харников - Вежливые люди императора (2019) MP3 602.60 MB ↑ 1 ↓ 4
2019-12-03 U Аствацатуров Андрей - Люди в голом (2013) MP3 296.33 MB ↑ 3 ↓ 1
2019-10-02 U Люди в черном: Интернэшнл / Men in Black International (2019) BDRip от Twister & ExKinoRay | Лицензия 1.47 GB ↑ 49 ↓ 13
2019-10-01 U Люди в черном: Интернэшнл / Men in Black International (2019) BDRip 1080p от селезень | Лицензия 11.80 GB ↑ 262 ↓ 84
2019-10-01 U Люди в черном: Интернэшнл / Men in Black International (2019) BDRip 1080p от qqss44 & MegaPeer | Лицензия 7.74 GB ↑ 100 ↓ 70
2019-10-01 U Люди в черном: Интернэшнл / Men in Black International (2019) BDRip от MegaPeer | Лицензия 1.46 GB ↑ 168 ↓ 66
2019-09-11 U Люди Икс: Тёмный Феникс / Dark Phoenix (2019) HDRip от ExKinoRay | Лицензия 746.49 MB ↑ 31 ↓ 15

Отзывы
Зарегистрируйтесь чтобы добавить комментарий.
Обратная связь
Copyleft ©