↑↓Torrent.by
Поиск
Логин: Регистрация
Пароль: Восстановить пароль
Загрузка...

Робот 2.0 / 2.0 (2018) WEB-DLRip-AVC от ExKinoRay | iTunes

Скачать robot-2-0-2018-web-dlrip-avc-ot-exkinoray-itunes.torrent
U Магнитная ссылка Размер: 746.79 MB Раздают: 79 Качают: 20 Добавлен: 2019-08-26 12:51:46
Робот 2.0 / 2.0 (2018) WEB-DLRip-AVC от ExKinoRay | iTunes

Название: Робот 2.0
Оригинальное название: 2.0
Год выхода: 2018
Жанр: Фантастика, боевик, триллер, комедия
Режиссер: С. Шанкар
В ролях: Раджникант, Акшай Кумар, Эми Джексон, Суданшу Пандей, Адиль Хуссейн, Калабхаван Шаджон, Ишари Ганеш, Кайзаад Котвал, Прия Принс, Майур Бансивал, Маилсами, Анант Махадеван, Авиджит Дат, Бхарат Редди, Майя Си Кришнан

О фильме:
Известный ученый доктор Васегаран, по заказу оборонного ведомства более десяти лет занимался разработкой невероятного робота-солдата. Военные мечтали получить неуязвимого воина, способного победить любого противника. Наконец, изобретатель завершил работу, и представил свое изобретение — андроида Читти, обладающего интеллектом и невероятными способностями. Робот оказался не только умным и сильным, но и прекрасным собеседником. Однажды, по стечению обстоятельств робот оказывается в руках профессора Бохра. Этот коварный злодей, превращает Читти в смертельное оружие, используя его в корыстных целях.

Страна: Индия
Студия: Dakshaa, Double Negative (DNEG), Lyca Productions
Продолжительность: 01:40:18
Перевод: Дублированный | iTunes

Файл
Формат: MKV
Качество: WEB-DLRip-AVC
Видео: MPEG-4 AVC, 792x332, - 963 Кбит/с
Аудио:  AAC-HE, 2 ch, - 76 Кбит/с
Субтитры: Нет


[+] MI
Общее
Уникальный идентификатор : 64595956097124942675469262584817302532 (0x3098BA8668044AFD6944FED41BD6BC04)
Полное имя : D:MOVIESRobot.2-0.2018.WEB-DLRip-AVC.ExKinoRay.mkv
Формат : Matroska
Версия формата : Version 4 / Version 2
Размер файла : 747 Мбайт
Продолжительность : 1 ч. 40 м.
Общий поток : 1041 Кбит/сек
Дата кодирования : UTC 2019-08-25 11:17:48
Программа кодирования : mkvmerge v35.0.0 ('All The Love In The World') 64-bit
Библиотека кодирования : libebml v1.3.9 + libmatroska v1.5.2

Видео
Идентификатор : 1
Формат : AVC
Формат/Информация : Advanced Video Codec
Профиль формата : High@L4.1
Параметр CABAC формата : Да
Параметр RefFrames формата : 12 кадров
Идентификатор кодека : V_MPEG4/ISO/AVC
Продолжительность : 1 ч. 40 м.
Битрейт : 963 Кбит/сек
Ширина : 792 пикселя
Высота : 332 пикселя
Соотношение сторон : 2,40:1
Режим частоты кадров : Постоянный
Частота кадров : 24,000 кадра/сек
Цветовое пространство : YUV
Субдискретизация насыщенности : 4:2:0
Битовая глубина : 8 бит
Тип развёртки : Прогрессивная
Бит/(Пиксели*Кадры) : 0.153
Размер потока : 691 Мбайт (93%)
Библиотека кодирования : x264 core 152 r2851kMod ba24899
Настройки программы : cabac=1 / ref=12 / deblock=1:-3:-3 / analyse=0x3:0x133 / me=umh / subme=10 / psy=1 / fade_compensate=0.00 / psy_rd=1.00:0.10 / mixed_ref=1 / me_range=32 / chroma_me=1 / trellis=2 / 8x8dct=1 / cqm=0 / deadzone=21,11 / fast_pskip=0 / chroma_qp_offset=-3 / threads=6 / lookahead_threads=1 / sliced_threads=0 / nr=0 / decimate=0 / interlaced=0 / bluray_compat=0 / constrained_intra=0 / bframes=12 / b_pyramid=2 / b_adapt=2 / b_bias=0 / direct=3 / weightb=1 / open_gop=0 / weightp=2 / keyint=240 / keyint_min=23 / scenecut=40 / intra_refresh=0 / rc_lookahead=40 / rc=2pass / mbtree=1 / bitrate=963 / ratetol=1.0 / qcomp=0.60 / qpmin=0 / qpmax=69 / qpstep=4 / cplxblur=20.0 / qblur=0.5 / ip_ratio=1.40 / aq=3:1.00
Default : Да
Forced : Нет

Аудио
Идентификатор : 2
Формат : AAC
Формат/Информация : Advanced Audio Codec
Профиль формата : HE-AAC / LC
Идентификатор кодека : A_AAC
Продолжительность : 1 ч. 40 м.
Битрейт : 76,0 Кбит/сек
Каналы : 2 канала
Расположение каналов : Front: L R
Частота : 48,0 КГц / 24,0 КГц
Частота кадров : 23,438 кадра/сек (1024 SPF)
Метод сжатия : С потерями
Задержка видео : 31 мс.
Размер потока : 54,5 Мбайт (7%)
Язык : Russian
Default : Да
Forced : Нет

Меню
00:00:00.000 : en:Глава 1
00:08:01.625 : en:Глава 2
00:15:01.875 : en:Глава 3
00:20:19.083 : en:Глава 4
00:26:28.499 : en:Глава 5
00:32:11.332 : en:Глава 6
00:37:38.248 : en:Глава 7
00:42:10.498 : en:Глава 8
00:47:46.123 : en:Глава 9
00:52:35.248 : en:Глава 10
00:57:21.539 : en:Глава 11
01:02:43.997 : en:Глава 12
01:07:24.288 : en:Глава 13
01:13:21.579 : en:Глава 14
01:19:31.579 : en:Глава 15
01:25:54.120 : en:Глава 16



Скриншоты:
[+] Всего файлов в раздаче - 1:
Robot.2-0.2018.WEB-DLRip-AVC.ExKinoRay.mkv746.79 MB

Похожие раздачи по запросу - робот:
2019-08-26 U Робот 2.0 / 2.0 (2018) WEB-DLRip-AVC | iTunes 1.66 GB ↑ 60 ↓ 28
2019-08-25 U Робот 2.0 / 2.0 (2018) WEB-DLRip | iTunes 1.43 GB ↑ 72 ↓ 19
2019-08-25 U Робот 2.0 / 2.0 (2018) WEB-DL 1080p | iTunes 3.52 GB ↑ 160 ↓ 61
2019-05-24 U Толя-робот [01-04 из 08] (2019) WEBRip-AVC от Files-x 2.37 GB ↑ 84 ↓ 92

Отзывы
Зарегистрируйтесь чтобы добавить комментарий.
Обратная связь
Copyleft ©