↑↓Torrent.by
Поиск
Логин: Регистрация
Пароль: Восстановить пароль

Люди в черном: Интернэшнл / Men in Black International (2019) UHD BDRip-HEVC 2160p | 4K | HDR | D, P | iTunes

Скачать lyudi-v-chernom-interneshnl-men-in-black-international-2019-uhd-bdrip-hevc-2160p-4k-hdr-d-p-itunes.torrent
U Магнитная ссылка Размер: 13.94 GB Раздают: 123 Качают: 77 Добавлен: 2019-08-26 14:46:45
Люди в черном: Интернэшнл / Men in Black International (2019) UHD BDRip-HEVC 2160p | 4K | HDR | D, P | iTunes

Название: Люди в черном: Интернэшнл
Оригинальное название: Men in Black International
Год выхода: 2019
Жанр: Фантастика, боевик, комедия, приключения

Режиссер: Ф. Гэри Грей

В ролях: Крис Хемсворт, Тесса Томпсон, Кумэйл Нанджиани, Ребекка Фергюсон, Рейф Сполл, Эмма Томпсон, Лиам Нисон, Лоран Буржуа, Ларри Буржуа, Кайван Новак

О фильме:  Люди в черном, тайная организация на страже покоя и безопасности Земли, уже не раз защищали нас от нападения отбросов Вселенной. На этот раз самая большая опасность для мирового сообщества, которой агентам предстоит противостоять — шпион в их рядах

Страна: США
Продолжительность: 01:54:50
Перевод:
#1 Профессиональный (дублированный) | iTunes
#2 Профессиональный (многоголосый, закадровый) | HDRezka Studio

Файл
Кодек: H.265
Качество: UHD BDRip-HEVC 2160p (Men in Black International 2019.MULTi.UHD.BluRay.2160p.Atmos.7.1.HEVC-DDR)
Видео: MPEG-H HEVC HDR Video, 3840x1912 (2.008), 23.976 fps, 16.0 Mb/s
Аудио 1: AC-3, 48.0 kHz, 6 ch, 384 kb/s | RUS (DUB / iTunes)
Аудио 2: AC-3, 48.0 kHz, 2 ch, 192 kb/s | RUS (MVO / HDRezka Studio)
Аудио 3: AC-3, 48.0 kHz, 2 ch, 192 kb/s | UKR (DUB / iTunes)
Аудио 4: AC-3, 48.0 kHz, 6 ch, 640 kb/s | ENG (Оригинал)
Субтитры: Русские (форс., полные), украинские (форс., полные), английские (полные, SDH)

Семпл


[+] MI
General
Unique ID                                : 226563492337378021040374200473956751079 (0xAA728A9A7C198B158D638304C1B996E7)
Complete name                            : Men.in.Black.International.2019.BDRip.2160p.UHD.HEVC.HDR.mkv
Format                                   : Matroska
Format version                           : Version 4
File size                                : 13.9 GiB
Duration                                 : 1 h 54 min
Overall bit rate                         : 17.4 Mb/s
Encoded date                             : UTC 2019-08-25 18:18:38
Writing application                      : mkvmerge v8.3.0 ('Over the Horizon') 64bit
Writing library                          : libebml v1.3.1 + libmatroska v1.4.2

Video
ID                                       : 1
Format                                   : HEVC
Format/Info                              : High Efficiency Video Coding
Commercial name                          : HDR10
Format profile                           : Main 10@L5.1@High
Codec ID                                 : V_MPEGH/ISO/HEVC
Duration                                 : 1 h 54 min
Bit rate                                 : 16.0 Mb/s
Width                                    : 3 840 pixels
Height                                   : 1 912 pixels
Display aspect ratio                     : 2.008
Frame rate mode                          : Constant
Frame rate                               : 23.976 (24000/1001) FPS
Color space                              : YUV
Chroma subsampling                       : 4:2:0
Bit depth                                : 10 bits
Bits/(Pixel*Frame)                       : 0.091
Stream size                              : 12.8 GiB (92%)
Language                                 : English
Default                                  : Yes
Forced                                   : No
Color range                              : Limited
Color primaries                          : BT.2020
Transfer characteristics                 : PQ
Matrix coefficients                      : BT.2020 non-constant
Mastering display color primaries        : Display P3
Mastering display luminance              : min: 0.0000 cd/m2, max: 4000 cd/m2
Maximum Content Light Level              : 9008 cd/m2
Maximum Frame-Average Light Level        : 942 cd/m2

Audio #1
ID                                       : 2
Format                                   : AC-3
Format/Info                              : Audio Coding 3
Commercial name                          : Dolby Digital
Codec ID                                 : A_AC3
Duration                                 : 1 h 54 min
Bit rate mode                            : Constant
Bit rate                                 : 384 kb/s
Channel(s)                               : 6 channels
Channel layout                           : L R C LFE Ls Rs
Sampling rate                            : 48.0 kHz
Frame rate                               : 31.250 FPS (1536 SPF)
Bit depth                                : 16 bits
Compression mode                         : Lossy
Stream size                              : 315 MiB (2%)
Title                                    : DUB (iTunes)
Language                                 : Russian
Default                                  : Yes
Forced                                   : No

Audio #2
ID                                       : 3
Format                                   : AC-3
Format/Info                              : Audio Coding 3
Commercial name                          : Dolby Digital
Codec ID                                 : A_AC3
Duration                                 : 1 h 54 min
Bit rate mode                            : Constant
Bit rate                                 : 192 kb/s
Channel(s)                               : 2 channels
Channel layout                           : L R
Sampling rate                            : 48.0 kHz
Frame rate                               : 31.250 FPS (1536 SPF)
Bit depth                                : 16 bits
Compression mode                         : Lossy
Stream size                              : 158 MiB (1%)
Title                                    : MVO (HDRezka Studio)
Language                                 : Russian
Default                                  : No
Forced                                   : No

Audio #3
ID                                       : 4
Format                                   : AC-3
Format/Info                              : Audio Coding 3
Commercial name                          : Dolby Digital
Codec ID                                 : A_AC3
Duration                                 : 1 h 54 min
Bit rate mode                            : Constant
Bit rate                                 : 192 kb/s
Channel(s)                               : 2 channels
Channel layout                           : L R
Sampling rate                            : 48.0 kHz
Frame rate                               : 31.250 FPS (1536 SPF)
Bit depth                                : 16 bits
Compression mode                         : Lossy
Stream size                              : 158 MiB (1%)
Title                                    : DUB (iTunes)
Language                                 : Ukrainian
Default                                  : No
Forced                                   : No

Audio #4
ID                                       : 5
Format                                   : AC-3
Format/Info                              : Audio Coding 3
Commercial name                          : Dolby Digital
Codec ID                                 : A_AC3
Duration                                 : 1 h 54 min
Bit rate mode                            : Constant
Bit rate                                 : 640 kb/s
Channel(s)                               : 6 channels
Channel layout                           : L R C LFE Ls Rs
Sampling rate                            : 48.0 kHz
Frame rate                               : 31.250 FPS (1536 SPF)
Bit depth                                : 16 bits
Compression mode                         : Lossy
Stream size                              : 526 MiB (4%)
Language                                 : English
Default                                  : No
Forced                                   : No

Text #1
ID                                       : 6
Format                                   : UTF-8
Codec ID                                 : S_TEXT/UTF8
Codec ID/Info                            : UTF-8 Plain Text
Duration                                 : 1 h 13 min
Bit rate                                 : 0 b/s
Count of elements                        : 15
Stream size                              : 464 Bytes (0%)
Title                                    : Forced
Language                                 : Russian
Default                                  : Yes
Forced                                   : Yes

Text #2
ID                                       : 7
Format                                   : UTF-8
Codec ID                                 : S_TEXT/UTF8
Codec ID/Info                            : UTF-8 Plain Text
Duration                                 : 1 h 53 min
Bit rate                                 : 86 b/s
Count of elements                        : 1441
Stream size                              : 72.1 KiB (0%)
Title                                    : Full
Language                                 : Russian
Default                                  : No
Forced                                   : No

Text #3
ID                                       : 8
Format                                   : UTF-8
Codec ID                                 : S_TEXT/UTF8
Codec ID/Info                            : UTF-8 Plain Text
Duration                                 : 6 s 507 ms
Bit rate                                 : 108 b/s
Count of elements                        : 3
Stream size                              : 88.0 Bytes (0%)
Title                                    : Forced
Language                                 : Ukrainian
Default                                  : No
Forced                                   : No

Text #4
ID                                       : 9
Format                                   : UTF-8
Codec ID                                 : S_TEXT/UTF8
Codec ID/Info                            : UTF-8 Plain Text
Duration                                 : 1 h 53 min
Bit rate                                 : 87 b/s
Count of elements                        : 1519
Stream size                              : 72.4 KiB (0%)
Title                                    : Full
Language                                 : Ukrainian
Default                                  : No
Forced                                   : No

Text #5
ID                                       : 10
Format                                   : UTF-8
Codec ID                                 : S_TEXT/UTF8
Codec ID/Info                            : UTF-8 Plain Text
Duration                                 : 1 h 43 min
Bit rate                                 : 68 b/s
Count of elements                        : 1706
Stream size                              : 51.7 KiB (0%)
Title                                    : Full
Language                                 : English
Default                                  : No
Forced                                   : No

Text #6
ID                                       : 11
Format                                   : UTF-8
Codec ID                                 : S_TEXT/UTF8
Codec ID/Info                            : UTF-8 Plain Text
Duration                                 : 1 h 53 min
Bit rate                                 : 68 b/s
Count of elements                        : 2014
Stream size                              : 56.6 KiB (0%)
Title                                    : SDH
Language                                 : English
Default                                  : No
Forced                                   : No

Menu
00:00:00.000                             : en:Chapter 01
00:07:58.394                             : en:Chapter 02
00:15:32.890                             : en:Chapter 03
00:20:09.583                             : en:Chapter 04
00:27:17.135                             : en:Chapter 05
00:34:29.650                             : en:Chapter 06
00:46:10.267                             : en:Chapter 07
00:50:31.653                             : en:Chapter 08
00:59:01.204                             : en:Chapter 09
01:03:12.914                             : en:Chapter 10
01:10:51.413                             : en:Chapter 11
01:14:35.888                             : en:Chapter 12
01:25:31.376                             : en:Chapter 13
01:28:49.574                             : en:Chapter 14
01:34:29.246                             : en:Chapter 15
01:43:31.830                             : en:Chapter 16



Скриншоты:
[+] Всего файлов в раздаче - 1:
Men.in.Black.International.2019.BDRip.2160p.UHD.HEVC.HDR.mkv13.94 GB

Показать еще раздачи по запросу люди:
2019-12-06 U Александр Харников - Вежливые люди императора (2019) MP3 602.60 MB ↑ 1 ↓ 4
2019-12-03 U Аствацатуров Андрей - Люди в голом (2013) MP3 296.33 MB ↑ 2 ↓ 1
2019-10-02 U Люди в черном: Интернэшнл / Men in Black International (2019) BDRip от Twister & ExKinoRay | Лицензия 1.47 GB ↑ 49 ↓ 13
2019-10-01 U Люди в черном: Интернэшнл / Men in Black International (2019) BDRip 1080p от селезень | Лицензия 11.80 GB ↑ 255 ↓ 84
2019-10-01 U Люди в черном: Интернэшнл / Men in Black International (2019) BDRip 1080p от qqss44 & MegaPeer | Лицензия 7.74 GB ↑ 99 ↓ 70
2019-10-01 U Люди в черном: Интернэшнл / Men in Black International (2019) BDRip от MegaPeer | Лицензия 1.46 GB ↑ 167 ↓ 66
2019-09-11 U Люди Икс: Тёмный Феникс / Dark Phoenix (2019) HDRip от ExKinoRay | Лицензия 746.49 MB ↑ 31 ↓ 15

Отзывы
Михаил
Вес очень радует,посмотрим что с картинкой.

Зарегистрируйтесь чтобы добавить комментарий.
Обратная связь
Copyleft ©