↑↓torrent.by
Поиск
Логин: Регистрация
Пароль: Восстановить пароль

Открытый микрофон [06х01-05 из 19] (2021) WEBRip 720p

Скачать otkrytyy-mikrofon-06h01-05-iz-19-2021-webrip-720p.torrent
U Магнитная ссылка Размер: 5.02 GB Раздают: 12 Качают: 33 Добавлен: 2021-09-12 08:58:29
Открытый микрофон [06х01-05 из 19] (2021) WEBRip 720p

Название: Открытый микрофон
Год выхода: 2021
Жанр: ТВ-шоу, юмор
Ведущий: Андрей Бебуришвили
Наставники: Алексей Щербаков, Юлия Ахмедова, Нурлан Сабуров, Иван Абрамов

О фильме:
Премьера! Новый сезон стендап-шоу, в котором топовые комики страны выбирают лучших молодых стендаперов и учат их быть ещё круче. В конце сезона останется только один - самый смешной и запоминающийся. Он получит 3 миллиона рублей. Наставниками нового сезона станут Алексей Щербаков, Юлия Ахмедова, Нурлан Сабуров и Иван Абрамов. Шоу «Открытый микрофон» – это социальный лифт для комиков, работающих в самом откровенном комедийном жанре. Это не просто шоу талантов, а способ найти новых отличных комиков. Монологи участников почти всегда основаны на реальной жизни и переживаниях. В этом шоу нет запретных тем, здесь только правда, только юмор, только стендап.

Страна: Россия
Студия: ТНТ, Comedy Club Production
Продолжительность: 5 x ~ 00:48:00
Язык: Русский

Премьера: 13 августа 2021 года (ТНТ)
Примечание: Без рекламы

Файл
Формат: MKV
Качество: WEBRip 720p
Видео: MPEG-4 AVC, ~ 3000 Кбит/с, 1280х720
Звук: AC3, 2 ch, 192 Кбит/с
Субтитры: Отсутствуют
Семпл


[+] MI
Общее
Уникальный идентификатор                 : 48976485076662967377829321715067660843 (0x24D88725A2484ABC7DCA73309DC42A2B)
Полное имя                               : D:Otkrytyj.mikrofon.S06.2021.WEB-DL.720p1.Otkrytyj.mikrofon.S06.2021.WEB-DL.720p.mkv
Формат                                   : Matroska
Версия формата                           : Version 4
Размер файла                             : 1 011 Мбайт
Продолжительность                        : 44 м. 18 с.
Режим общего битрейта                    : Переменный
Общий поток                              : 3 189 Кбит/сек
Название фильма                          : 01.Otkrytyj.mikrofon.S06.2021.WEB-DL.720p
Дата кодирования                         : UTC 2021-08-13 22:52:13
Программа кодирования                    : mkvmerge v60.0.0 ('Are We Copies?') 64-bit
Библиотека кодирования                   : libebml v1.4.2 + libmatroska v1.6.4
Attachments                              : poster.jpg

Видео
Идентификатор                            : 1
Формат                                   : AVC
Формат/Информация                        : Advanced Video Codec
Профиль формата                          : High@L3.1
Настройки формата                        : CABAC / 1 Ref Frames
Параметр CABAC формата                   : Да
Параметр RefFrames формата               : 1 кадр
Параметр GOP формата                     : M=1, N=50
Идентификатор кодека                     : V_MPEG4/ISO/AVC
Продолжительность                        : 44 м. 18 с.
Вид битрейта                             : Переменный
Битрейт                                  : 3 000 Кбит/сек
Ширина                                   : 1 280 пикселей
Высота                                   : 720 пикселей
Соотношение сторон                       : 16:9
Режим частоты кадров                     : Постоянный
Частота кадров                           : 25,000 кадров/сек
Цветовое пространство                    : YUV
Субдискретизация насыщенности            : 4:2:0
Битовая глубина                          : 8 бит
Тип развёртки                            : Прогрессивная
Бит/(Пиксели*Кадры)                      : 0.130
Размер потока                            : 949 Мбайт (94%)
Default                                  : Да
Forced                                   : Нет

Аудио
Идентификатор                            : 2
Формат                                   : AC-3
Формат/Информация                        : Audio Coding 3
Коммерческое название                    : Dolby Digital
Идентификатор кодека                     : A_AC3
Продолжительность                        : 44 м. 18 с.
Вид битрейта                             : Постоянный
Битрейт                                  : 192 Кбит/сек
Каналы                                   : 2 канала
Channel layout                           : L R
Частота                                  : 48,0 КГц
Частота кадров                           : 31,250 кадров/сек (1536 SPF)
Метод сжатия                             : С потерями
Размер потока                            : 60,8 Мбайт (6%)
Service kind                             : Complete Main
Default                                  : Да
Forced                                   : Нет



Скриншоты:
[+] Всего файлов в раздаче - 5:
01.Otkrytyj.mikrofon.S06.2021.WEB-DL.720p.mkv1,010.53 MB
03.Otkrytyj.mikrofon.S06.2021.WEB-DL.720p.mkv1.00 GB
05.Otkrytyj.mikrofon.S06.2021.WEB-DL.720p.mkv1.00 GB
04.Otkrytyj.mikrofon.S06.2021.WEB-DL.720p.mkv1.01 GB
02.Otkrytyj.mikrofon.S06.2021.WEB-DL.720p.mkv1.02 GB

Похожие раздачи по запросу - открытый:
2021-09-11 U Открытый микрофон [эфир от 11.09] (2021) WEBRip 1080p 1.47 GB ↑ 74 ↓ 11
2021-09-06 U Открытый микрофон [06х01-04 из 19] (2021) WEBRip 2.34 GB ↑ 16 ↓ 20
2021-08-26 U Открытый микрофон [06х01-02 из 19] (2021) WEBRip 720p 2.01 GB ↑ 2 ↓ 3
2021-08-23 U Открытый микрофон [06х01-02 из 19] (2021) WEBRip 1.17 GB ↑ 15 ↓ 19
2021-08-14 U Открытый микрофон [06х01 из 19] (2021) WEBRip 1080p 1.45 GB ↑ 63 ↓ 8
2021-08-14 U Открытый микрофон [06х01 из 19] (2021) WEBRip 599.71 MB ↑ 23 ↓ 7

Отзывы
Зарегистрируйтесь чтобы добавить комментарий.
Загрузите программу
  byTorrent
Обратная связь
Copyleft ©