↑↓Torrent.by
Поиск
Логин: Регистрация
Пароль: Восстановить пароль
Загрузка...

Дурочка / Aho Girl [S01] (2017) BDRip от Deadmauvlad | L | NewComers

Скачать durochka-aho-girl-s01-2017-bdrip-ot-deadmauvlad-l-newcomers.torrent
U Магнитная ссылка Размер: 2.11 GB Раздают: 2 Качают: 1 Добавлен: 2019-08-27 20:58:24

Информация о фильме
Название: Дурочка
Оригинальное название: Aho Girl
Год выхода: 2017
Жанр:  Комедия, приключения, мультсериал
Режиссер: Кэйдзо Кусакава
В ролях: Аой Юки, Томокадзу Сугита, Саяка Харада, Сумирэ Уэсака, Дайсукэ Намикава

О фильме:
Кто сказал, что без мозга жить нельзя? Героиня этого аниме, Йошико Ханабатаке, с превеликим удовольствием докажет вам обратное! Причём её успехами на этом поприще нельзя не восхититься. Йошико умудряется быть полнейшей тупицей как в учёбе, так и в обычной жизни. Редко кому удаётся достичь таких вершин, но рекорды по тупости ещё можно побить, и Йошико с невиданным энтузиазмом берётся за эту сложнейшую работу. Несмотря на её выдающиеся умственные способности, у Йошико имеется друг детства. Да не кто-нибудь, а лучший ученик в классе Акуру Акуцу. Он бы с радостью учился в другой школе, где больше времени уделяется обучению, но они все слишком далеки от дома, и ему приходится учиться в одном классе с Йошико, а в свободное от уроков время тоже учиться. Противоположности притягиваются! Как бы то ни было, Йошико всерьёз задумала выйти замуж за своего друга. И если в детстве, когда Акуру был ещё очарован маленькой дурочкой, он бы обрадовался такому заявлению, то сейчас, изрядно устав от её выпадов, он не рад перспективе обручиться с девушкой, чей суммарный балл во всех тестах равен нулю.



Страна: Япония
Студия: Diomedea
Продолжительность: 12х ~ 00:15:00
Перевод: Любительский (многоголосный закадровый) NewComers

Файл
Кодек: XviD
Качество: BDRip [Исходник AHO GIRL Complete Blu-ray 1080p  + CD by ]

Видео: 720x400 (16:9), 23.976 fps, 1611 Кбит/сек (0.233 bit/pixel)
Аудио #1: AC-3, 48,0 КГц, 2 ch, 192 Кбит/сек, CBR | | Озвучка от NewComers
Аудио #2: AC-3, 48,0 КГц, 2 ch, 192 Кбит/сек, CBR | | Орининал

[/hr]
[+] "MediaInfo"
Общее
Полное имя                               : DuRo4Ka.2017.S01.NewComers.BDRip.Deadmauvlad.Ep.01.avi
Формат                                   : AVI
Формат/Информация                        : Audio Video Interleave
Размер файла                             : 180 Мбайт
Продолжительность                        : 12 м. 31 с.
Общий поток                              : 2008 Кбит/сек
Название фильма                          : DuRo4Ka.2017.S01.NewComers.BDRip.Deadmauvlad.Ep.01
Режиссёр                                 : Encoder by Deadmauvlad
Жанр                                     : комедия, романтика
Программа кодирования                    : VirtualDubMod 1.5.10.3 | http://www.virtualdub-fr.org || (build 2550/release)
Формат оригинала/Имя                     : Anime
Авторское право                          : Encoder by Deadmauvlad
Примечание                               : Encoder by Deadmauvlad

Видео
Идентификатор                            : 0
Формат                                   : MPEG-4 Visual
Профиль формата                          : Advanced Simple@L5
Настройки формата                        : BVOP1 / Custom Matrix
Параметр BVOP формата                    : 1
Параметр QPel формата                    : Нет
Параметр GMC формата                     : Без точки перехода
Параметр матрицы формата                 : Выборочная
Идентификатор кодека                     : XVID
Идентификатор кодека/Подсказка           : XviD
Продолжительность                        : 12 м. 31 с.
Битрейт                                  : 1610 Кбит/сек
Ширина                                   : 720 пикселей
Высота                                   : 400 пикселей
Соотношение сторон                       : 16:9
Частота кадров                           : 23,976 (24000/1001) кадра/сек
Цветовое пространство                    : YUV
Субдискретизация насыщенности            : 4:2:0
Битовая глубина                          : 8 бит
Тип развёртки                            : Прогрессивная
Метод сжатия                             : С потерями
Бит/(Пиксели*Кадры)                      : 0.233
Размер потока                            : 144 Мбайт (80%)
Библиотека кодирования                   : XviD 73

Аудио #1
Идентификатор                            : 1
Формат                                   : AC-3
Формат/Информация                        : Audio Coding 3
Коммерческое название                    : Dolby Digital
Идентификатор кодека                     : 2000
Продолжительность                        : 12 м. 31 с.
Вид битрейта                             : Постоянный
Битрейт                                  : 192 Кбит/сек
Каналы                                   : 2 канала
Channel layout                           : L R
Частота                                  : 48,0 КГц
Частота кадров                           : 31,250 кадров/сек (1536 SPF)
Битовая глубина                          : 16 бит
Метод сжатия                             : С потерями
Размер потока                            : 17,2 Мбайт (10%)
Выравнивание                             : Разделение по промежуткам
Продолжительность промежутка             : 42  мс. (1,00 видеокадр)
Время предзагрузки промежутка            : 500  мс.

Аудио #2
Идентификатор                            : 2
Формат                                   : AC-3
Формат/Информация                        : Audio Coding 3
Коммерческое название                    : Dolby Digital
Идентификатор кодека                     : 2000
Продолжительность                        : 12 м. 31 с.
Вид битрейта                             : Постоянный
Битрейт                                  : 192 Кбит/сек
Каналы                                   : 2 канала
Channel layout                           : L R
Частота                                  : 48,0 КГц
Частота кадров                           : 31,250 кадров/сек (1536 SPF)
Битовая глубина                          : 16 бит
Метод сжатия                             : С потерями
Размер потока                            : 17,2 Мбайт (10%)
Выравнивание                             : Разделение по промежуткам
Продолжительность промежутка             : 42  мс. (1,00 видеокадр)
Время предзагрузки промежутка            : 500  мс.



[/hr]
[+] "Список Серий"
01. Here She Is! Aho Girl
02. Aho Girl Multiplies!
03. Security in Senior Citizenship! Aho Girl!
04. Charge! Aho Girl
05. Summertime! Aho Girl!!
06. A Hot Summer! Aho Girl
07. The Gal! Aho Girl!
08. Like an Angel! Aho Girl!
09. Festival! Aho Girl!
10. Drive! Aho Girl!
11. Final Battle! Decisive Blow! Aho Girl
12. Meeting... and! Aho Girl



[/hr]
[+] "Скриншоты"
[center]              [/center]

[+] Всего файлов в раздаче - 12:
DuRo4Ka.2017.S01.NewComers.BDRip.Deadmauvlad.Ep.10.avi180.19 MB
DuRo4Ka.2017.S01.NewComers.BDRip.Deadmauvlad.Ep.02.avi180.16 MB
DuRo4Ka.2017.S01.NewComers.BDRip.Deadmauvlad.Ep.03.avi180.13 MB
DuRo4Ka.2017.S01.NewComers.BDRip.Deadmauvlad.Ep.04.avi180.18 MB
DuRo4Ka.2017.S01.NewComers.BDRip.Deadmauvlad.Ep.05.avi180.15 MB
DuRo4Ka.2017.S01.NewComers.BDRip.Deadmauvlad.Ep.06.avi180.06 MB
DuRo4Ka.2017.S01.NewComers.BDRip.Deadmauvlad.Ep.07.avi180.14 MB
DuRo4Ka.2017.S01.NewComers.BDRip.Deadmauvlad.Ep.08.avi180.15 MB
DuRo4Ka.2017.S01.NewComers.BDRip.Deadmauvlad.Ep.09.avi180.12 MB
DuRo4Ka.2017.S01.NewComers.BDRip.Deadmauvlad.Ep.01.avi180.04 MB
DuRo4Ka.2017.S01.NewComers.BDRip.Deadmauvlad.Ep.11.avi180.17 MB
DuRo4Ka.2017.S01.NewComers.BDRip.Deadmauvlad.Ep.12.END.avi180.17 MB

Отзывы
Зарегистрируйтесь чтобы добавить комментарий.
Обратная связь
Copyleft ©