↑↓torrent.by
Поиск
Логин: Регистрация
Пароль: Восстановить пароль

Аладдин / Aladdin (2019) BDRip-AVC от OlLanDGroup | iTunes

Скачать aladdin-2019-bdrip-avc-ot-ollandgroup-itunes.torrent
U Магнитная ссылка Размер: 2.36 GB Раздают: 402 Качают: 82 Добавлен: 2019-08-30 08:13:48
Аладдин / Aladdin (2019) BDRip-AVC от OlLanDGroup | iTunes

Аладдин / Aladdin

Год выпуска: 2019
Страна: Великобритания, США
Производство: Walt Disney Pictures, Lin Pictures, Rideback
Жанр:  Мюзикл, фэнтези, мелодрама, комедия, приключения, семейный

Режиссёр: Гай Ричи
В ролях: Мена Массуд, Наоми Скотт, Уилл Смит, Билли Магнуссен, Алан Тьюдик, Назим Педрад, Марван Кензари, Нуман Аджар, Фрэнк Уэлкер, Навид Негабан, Джордан А. Нэш, Талия Блэр, Обри Лин

Перевод: Дублированный | [iTunes]
Субтитры: Русские (полные, SDH), английские (полные, SDH)
Реклама: Отсутствует

Описание: Молодой воришка по имени Аладдин хочет стать принцем, чтобы жениться на принцессе Жасмин. Тем временем визирь Аграбы Джафар намеревается захватить власть над Аграбой, а для этого он стремится заполучить волшебную лампу, хранящуюся в пещере чудес, доступ к которой разрешен лишь тому, кого называют «алмаз неограненный», и этим человеком является не кто иной, как сам Аладдин.

Качество: BDRip-AVC | BDRemux | Aladdin.2019.1080p.BluRay.REMUX.AVC.DTS-HD.MA7.1-iFT
Продолжительность: 02:07:58

Формат: MKV
Видео кодек: MPEG-4 AVC
Аудио кодек: AC3
Видео: 1024x428 (2.40:1), 23,976 fps, x264 ~1 801 kbps avg, 0.171 bit/pixel
Аудио #1: 48 kHz, AC3 Dolby Digital, 3/2 (L,C,R,l,r) + LFE ch, ~384.00 kbps avg | RUS (iTunes)
Аудио #2: 48 kHz, AC3 Dolby Digital, 3/2 (L,C,R,l,r) + LFE ch, ~448.00 kbps avg | ENG

Дата премьеры (мир): 8 мая 2019
Дата премьеры (РФ): 23 мая 2019, «WDSSPR»
Цифровой релиз: 30 августа 2019, «Уолт Дисней Компани СНГ»

Релиз:


[+] MediaInfo

Общее
Уникальный идентификатор                 : 114416583273758813967007075812842560302 (0x5613D517421450F8873E3FD139D65B2E)
Полное имя                               : F:OlLanDGroupAladdin.2019.BDRip(AVC).OlLanDGroup.mkv
Формат                                   : Matroska
Версия формата                           : Version 4 / Version 2
Размер файла                             : 2,36 Гбайт
Продолжительность                        : 2 ч. 7 м.
Общий поток                              : 2636 Кбит/сек
Название фильма                          : Aladdin.2019   #TorpedoUK#
Дата кодирования                         : UTC 2019-08-29 19:31:19
Программа кодирования                    : mkvmerge v29.0.0 ('Like It Or Not') 64-bit
Библиотека кодирования                   : libebml v1.3.6 + libmatroska v1.4.9

Видео
Идентификатор                            : 1
Формат                                   : AVC
Формат/Информация                        : Advanced Video Codec
Профиль формата                          : High@L4.1
Параметр CABAC формата                   : Да
Параметр ReFrames формата                : 10 кадров
Идентификатор кодека                     : V_MPEG4/ISO/AVC
Продолжительность                        : 2 ч. 7 м.
Битрейт                                  : 1801 Кбит/сек
Ширина                                   : 1024 пикселя
Высота                                   : 428 пикселей
Соотношение сторон                       : 2,40:1
Режим частоты кадров                     : Постоянный
Частота кадров                           : 23,976 (24000/1001) кадра/сек
Цветовое пространство                    : YUV
Субдискретизация насыщенности            : 4:2:0
Битовая глубина                          : 8 бит
Тип развёртки                            : Прогрессивная
Бит/(Пиксели*Кадры)                      : 0.171
Размер потока                            : 1,61 Гбайт (68%)
Библиотека кодирования                   : x264 core 146 r2538 121396c
Настройки программы                      : cabac=1 / ref=10 / deblock=1:-3:-3 / analyse=0x3:0x113 / me=umh / subme=11 / psy=1 / psy_rd=1.00:0.03 / mixed_ref=1 / me_range=48 / chroma_me=1 / trellis=2 / 8x8dct=1 / cqm=0 / deadzone=21,11 / fast_pskip=1 / chroma_qp_offset=-3 / threads=6 / lookahead_threads=1 / sliced_threads=0 / nr=0 / decimate=1 / interlaced=0 / bluray_compat=0 / constrained_intra=0 / bframes=11 / b_pyramid=2 / b_adapt=2 / b_bias=0 / direct=3 / weightb=1 / open_gop=0 / weightp=2 / keyint=240 / keyint_min=23 / scenecut=40 / intra_refresh=0 / rc_lookahead=40 / rc=2pass / mbtree=0 / bitrate=1801 / ratetol=1.0 / qcomp=0.60 / qpmin=0 / qpmax=69 / qpstep=4 / cplxblur=20.0 / qblur=0.5 / vbv_maxrate=50000 / vbv_bufsize=62500 / nal_hrd=none / filler=0 / ip_ratio=1.40 / pb_ratio=1.30 / aq=1:1.00
Язык                                     : English
Default                                  : Да
Forced                                   : Нет

Аудио #1
Идентификатор                            : 2
Формат                                   : AC-3
Формат/Информация                        : Audio Coding 3
Расширение режима                        : CM (complete main)
Параметр Endianness формата              : Big
Идентификатор кодека                     : A_AC3
Продолжительность                        : 2 ч. 7 м.
Вид битрейта                             : Постоянный
Битрейт                                  : 384 Кбит/сек
Каналы                                   : 6 каналов
Расположение каналов                     : Front: L C R, Side: L R, LFE
Частота                                  : 48,0 КГц
Частота кадров                           : 31,250 кадров/сек (1536 spf)
Битовая глубина                          : 16 бит
Метод сжатия                             : С потерями
Размер потока                            : 352 Мбайт (15%)
Заголовок                                : DUB [iTunes]
Язык                                     : Russian
Default                                  : Да
Forced                                   : Нет

Аудио #2
Идентификатор                            : 3
Формат                                   : AC-3
Формат/Информация                        : Audio Coding 3
Расширение режима                        : CM (complete main)
Параметр Endianness формата              : Big
Идентификатор кодека                     : A_AC3
Продолжительность                        : 2 ч. 7 м.
Вид битрейта                             : Постоянный
Битрейт                                  : 448 Кбит/сек
Каналы                                   : 6 каналов
Расположение каналов                     : Front: L C R, Side: L R, LFE
Частота                                  : 48,0 КГц
Частота кадров                           : 31,250 кадров/сек (1536 spf)
Битовая глубина                          : 16 бит
Метод сжатия                             : С потерями
Размер потока                            : 410 Мбайт (17%)
Заголовок                                : [Original]
Язык                                     : English
Default                                  : Нет
Forced                                   : Нет

Текст #1
Идентификатор                            : 4
Формат                                   : UTF-8
Идентификатор кодека                     : S_TEXT/UTF8
Идентификатор кодека/Информация          : UTF-8 Plain Text
Продолжительность                        : 2 ч. 6 м.
Битрейт                                  : 82 бит/сек
Count of elements                        : 1788
Размер потока                            : 76,8 Кбайт (0%)
Заголовок                                : Full
Язык                                     : Russian
Default                                  : Нет
Forced                                   : Нет

Текст #2
Идентификатор                            : 5
Формат                                   : UTF-8
Идентификатор кодека                     : S_TEXT/UTF8
Идентификатор кодека/Информация          : UTF-8 Plain Text
Продолжительность                        : 2 ч. 0 м.
Битрейт                                  : 110 бит/сек
Count of elements                        : 2327
Размер потока                            : 97,2 Кбайт (0%)
Заголовок                                : SDH
Язык                                     : Russian
Default                                  : Нет
Forced                                   : Нет

Текст #3
Идентификатор                            : 6
Формат                                   : UTF-8
Идентификатор кодека                     : S_TEXT/UTF8
Идентификатор кодека/Информация          : UTF-8 Plain Text
Продолжительность                        : 2 ч. 7 м.
Битрейт                                  : 65 бит/сек
Count of elements                        : 2113
Размер потока                            : 61,2 Кбайт (0%)
Заголовок                                : Full
Язык                                     : English
Default                                  : Нет
Forced                                   : Нет

Текст #4
Идентификатор                            : 7
Формат                                   : UTF-8
Идентификатор кодека                     : S_TEXT/UTF8
Идентификатор кодека/Информация          : UTF-8 Plain Text
Продолжительность                        : 2 ч. 7 м.
Битрейт                                  : 74 бит/сек
Count of elements                        : 2435
Размер потока                            : 69,7 Кбайт (0%)
Заголовок                                : SDH
Язык                                     : English
Default                                  : Нет
Forced                                   : Нет

Меню
00:00:00.000                             : en:Chapter 01
00:04:49.372                             : en:Chapter 02
00:13:04.659                             : en:Chapter 03
00:18:55.760                             : en:Chapter 04
00:26:18.410                             : en:Chapter 05
00:30:26.324                             : en:Chapter 06
00:39:51.889                             : en:Chapter 07
00:54:50.162                             : en:Chapter 08
01:02:18.652                             : en:Chapter 09
01:09:19.489                             : en:Chapter 10
01:21:53.033                             : en:Chapter 11
01:33:51.417                             : en:Chapter 12
01:38:48.381                             : en:Chapter 13
01:45:19.396                             : en:Chapter 14
01:53:07.030                             : en:Chapter 15
01:59:38.463                             : en:Chapter 16



Скриншоты:
[+] Всего файлов в раздаче - 1:
Aladdin.2019.BDRip(AVC).OlLanDGroup.mkv2.36 GB

Показать еще раздачи по запросу аладдин:
2020-01-09 U Аладдин / Aladdin (2019) BDRip от HQ-ViDEO | D | Лицензия 2.18 GB ↑ 48 ↓ 18
2019-12-08 U Аладдин / Aladdin (2019) BDRip 1080p от qqss44 & MegaPeer | Лицензия 7.75 GB ↑ 328 ↓ 13
2019-10-06 U Аладдин / Aladdin (2019) HDRip от Scarabey | Лицензия 2.17 GB ↑ 75 ↓ 11
2019-10-03 U Аладдин / Aladdin (2019) BDRip от MegaPeer | Лицензия 1.46 GB ↑ 213 ↓ 117
2019-09-04 U Аладдин / Aladdin (2019) BDRip от Twister & ExKinoRay | iTunes 2.13 GB ↑ 292 ↓ 16
2019-09-03 U Аладдин / Aladdin (2019) BDRip 720p от Scarabey | iTunes 5.91 GB ↑ 98 ↓ 32
2019-09-01 U Аладдин / Aladdin (2019) HDRip от Scarabey | iTunes 794.55 MB ↑ 178 ↓ 37

Отзывы
Зарегистрируйтесь чтобы добавить комментарий.
Обратная связь
Copyleft ©