↑↓torrent.by
Поиск
Логин: Регистрация
Пароль: Восстановить пароль

Аладдин / Aladdin (2019) BDRip 720p | D, P | iTunes

Скачать aladdin-2019-bdrip-720p-d-p-itunes.torrent
U Магнитная ссылка Размер: 5.39 GB Раздают: 431 Качают: 184 Добавлен: 2019-08-30 15:00:23
Аладдин / Aladdin (2019) BDRip 720p | D, P | iTunes

Информация о фильме
Название: Аладдин
Оригинальное название: Aladdin
Год выпуска: 2019
Жанр:  Мюзикл, фэнтези, мелодрама, комедия, приключения, семейный
Режиссер: Гай Ричи
В ролях: Мена Массуд, Наоми Скотт, Уилл Смит, Билли Магнуссен, Алан Тьюдик, Назим Педрад, Марван Кензари, Нуман Аджар, Фрэнк Уэлкер, Навид Негабан

О фильме:
Молодой воришка по имени Аладдин хочет стать принцем, чтобы жениться на принцессе Жасмин. Тем временем визирь Аграбы Джафар, намеревается захватить власть над Аграбой, а для этого он стремится заполучить волшебную лампу, хранящуюся в пещере чудес, доступ к которой разрешен лишь тому, кого называют «алмаз неограненный», и этим человеком является никто иной как сам Аладдин.

Страна: США
Студия: Walt Disney Pictures, Lin Pictures, Rideback
Продолжительность: 02:07:58
Перевод: Дублированный (iTunes), профессиональный (многоголосый закадровый) HDRezka Studio
Субтитры: Русские (forced, full), Английские (full, SDH)

Файл
Формат: MKV
Качество: BDRip 720p
Видео: AVC/H.264, 1280x536, ~5000 Kbps, 23.976 fps
Аудио 1: AC3, 6 ch, 384 Kbps | Русский (DUB)
Аудио 2: AC3, 2 ch, 192 Kbps | Русский (MVO + русский дубляж песен)
Аудио 3: AC3, 6 ch, 448 Kbps | Английский


[+] MediaInfo:
General
Complete name                            :Аладдин_Aladdin (2019) BDRip.H.264.720p.NNMClub.mkv
Format                                   : Matroska
Format version                           : Version 4
File size                                : 5.39 GiB
Duration                                 : 2 h 7 min
Overall bit rate                         : 6 026 kb/s
Movie name                               : Аладдин_Aladdin (2019) BDRip.H.264.720p.NNMClub
Encoded date                             : UTC 2019-08-30 05:51:20
Writing application                      : mkvmerge v36.0.0 ('Is That Jazz?') 64-bit
Writing library                          : libebml v1.3.9 + libmatroska v1.5.2

Video
ID                                       : 1
Format                                   : AVC
Format/Info                              : Advanced Video Codec
Format profile                           : High@L4.1
Format settings                          : CABAC / 12 Ref Frames
Format settings, CABAC                   : Yes
Format settings, Reference frames        : 12 frames
Codec ID                                 : V_MPEG4/ISO/AVC
Duration                                 : 2 h 7 min
Bit rate                                 : 5 000 kb/s
Width                                    : 1 280 pixels
Height                                   : 536 pixels
Display aspect ratio                     : 2.40:1
Frame rate mode                          : Constant
Frame rate                               : 23.976 (24000/1001) FPS
Color space                              : YUV
Chroma subsampling                       : 4:2:0
Bit depth                                : 8 bits
Scan type                                : Progressive
Bits/(Pixel*Frame)                       : 0.304
Stream size                              : 4.47 GiB (83%)
Title                                    : Аладдин_Aladdin (2019) BDRip.H.264.720p.NNMClub
Writing library                          : x264 core 157 r2969 d4099dd
Encoding settings                        : cabac=1 / ref=12 / deblock=1:-3:-3 / analyse=0x3:0x133 / me=umh / subme=11 / psy=1 / psy_rd=1.00:0.25 / mixed_ref=1 / me_range=32 / chroma_me=1 / trellis=2 / 8x8dct=1 / cqm=0 / deadzone=6,6 / fast_pskip=0 / chroma_qp_offset=-4 / threads=12 / lookahead_threads=2 / sliced_threads=0 / nr=0 / decimate=0 / interlaced=0 / bluray_compat=0 / constrained_intra=0 / bframes=9 / b_pyramid=2 / b_adapt=2 / b_bias=0 / direct=1 / weightb=1 / open_gop=0 / weightp=2 / keyint=240 / keyint_min=23 / scenecut=40 / intra_refresh=0 / rc_lookahead=40 / rc=2pass / mbtree=1 / bitrate=5000 / ratetol=1.0 / qcomp=0.60 / qpmin=0 / qpmax=69 / qpstep=4 / cplxblur=20.0 / qblur=0.5 / vbv_maxrate=50000 / vbv_bufsize=62500 / nal_hrd=none / filler=0 / ip_ratio=1.10 / aq=3:0.80
Language                                 : English
Default                                  : Yes
Forced                                   : No

Audio #1
ID                                       : 2
Format                                   : AC-3
Format/Info                              : Audio Coding 3
Commercial name                          : Dolby Digital
Codec ID                                 : A_AC3
Duration                                 : 2 h 7 min
Bit rate mode                            : Constant
Bit rate                                 : 384 kb/s
Channel(s)                               : 6 channels
Channel layout                           : L R C LFE Ls Rs
Sampling rate                            : 48.0 kHz
Frame rate                               : 31.250 FPS (1536 SPF)
Bit depth                                : 16 bits
Compression mode                         : Lossy
Stream size                              : 352 MiB (6%)
Title                                    : Дублированный (iTunes)
Language                                 : Russian
Service kind                             : Complete Main
Default                                  : Yes
Forced                                   : No

Audio #2
ID                                       : 3
Format                                   : AC-3
Format/Info                              : Audio Coding 3
Commercial name                          : Dolby Digital
Codec ID                                 : A_AC3
Duration                                 : 2 h 7 min
Bit rate mode                            : Constant
Bit rate                                 : 192 kb/s
Channel(s)                               : 2 channels
Channel layout                           : L R
Sampling rate                            : 48.0 kHz
Frame rate                               : 31.250 FPS (1536 SPF)
Bit depth                                : 16 bits
Compression mode                         : Lossy
Stream size                              : 176 MiB (3%)
Title                                    : MVO + русский дубляж песен (HDRezka Studio)
Language                                 : Russian
Service kind                             : Complete Main
Default                                  : No
Forced                                   : No

Audio #3
ID                                       : 4
Format                                   : AC-3
Format/Info                              : Audio Coding 3
Commercial name                          : Dolby Digital
Codec ID                                 : A_AC3
Duration                                 : 2 h 7 min
Bit rate mode                            : Constant
Bit rate                                 : 448 kb/s
Channel(s)                               : 6 channels
Channel layout                           : L R C LFE Ls Rs
Sampling rate                            : 48.0 kHz
Frame rate                               : 31.250 FPS (1536 SPF)
Bit depth                                : 16 bits
Compression mode                         : Lossy
Stream size                              : 410 MiB (7%)
Title                                    : Оригинал
Language                                 : English
Service kind                             : Complete Main
Default                                  : No
Forced                                   : No

Text #1
ID                                       : 5
Format                                   : UTF-8
Codec ID                                 : S_TEXT/UTF8
Codec ID/Info                            : UTF-8 Plain Text
Duration                                 : 1 h 59 min
Bit rate                                 : 14 b/s
Count of elements                        : 291
Stream size                              : 12.4 KiB (0%)
Title                                    : Форс.
Language                                 : Russian
Default                                  : Yes
Forced                                   : No

Text #2
ID                                       : 6
Format                                   : UTF-8
Codec ID                                 : S_TEXT/UTF8
Codec ID/Info                            : UTF-8 Plain Text
Duration                                 : 2 h 6 min
Bit rate                                 : 82 b/s
Count of elements                        : 1788
Stream size                              : 76.8 KiB (0%)
Title                                    : Полные
Language                                 : Russian
Default                                  : No
Forced                                   : No

Text #3
ID                                       : 7
Format                                   : UTF-8
Codec ID                                 : S_TEXT/UTF8
Codec ID/Info                            : UTF-8 Plain Text
Duration                                 : 1 h 58 min
Bit rate                                 : 50 b/s
Count of elements                        : 1682
Stream size                              : 43.4 KiB (0%)
Title                                    : full
Language                                 : English
Default                                  : No
Forced                                   : No

Text #4
ID                                       : 8
Format                                   : UTF-8
Codec ID                                 : S_TEXT/UTF8
Codec ID/Info                            : UTF-8 Plain Text
Duration                                 : 2 h 7 min
Bit rate                                 : 74 b/s
Count of elements                        : 2435
Stream size                              : 69.7 KiB (0%)
Title                                    : SDH
Language                                 : English
Default                                  : No
Forced                                   : No

Menu
00:00:00.000                             : en:Chapter 01
00:04:49.372                             : en:Chapter 02
00:13:04.659                             : en:Chapter 03
00:18:55.760                             : en:Chapter 04
00:26:18.410                             : en:Chapter 05
00:30:26.324                             : en:Chapter 06
00:39:51.889                             : en:Chapter 07
00:54:50.162                             : en:Chapter 08
01:02:18.652                             : en:Chapter 09
01:09:19.489                             : en:Chapter 11
01:21:53.033                             : en:Chapter 12
01:33:51.417                             : en:Chapter 13
01:38:48.381                             : en:Chapter 14
01:45:19.396                             : en:Chapter 15
01:53:07.030                             : en:Chapter 16
01:59:38.463                             : en:Chapter 17



[+] x264 log:
--[Information] [29.08.2019 19:54:09] Standard error stream
---[Information] [29.08.2019 19:54:19] y4m [info]: 1280x536p 1:1 @ 24000/1001 fps (cfr)
---[Information] [29.08.2019 19:54:19] x264 [info]: using SAR=1/1
---[Information] [29.08.2019 19:54:19] x264 [info]: using cpu capabilities: MMX2 SSE2Fast SSSE3 SSE4.2 AVX
---[Information] [29.08.2019 19:54:19] x264 [info]: profile Progressive High, level 4.1, 4:2:0, 8-bit
---[Information] [30.08.2019 2:32:13] x264 [info]: frame I:2207 Avg QP:14.92 size:146625
---[Information] [30.08.2019 2:32:13] x264 [info]: frame P:44478 Avg QP:17.32 size: 56641
---[Information] [30.08.2019 2:32:13] x264 [info]: frame B:137425 Avg QP:19.75 size: 14231
---[Information] [30.08.2019 2:32:13] x264 [info]: consecutive B-frames: 3.8% 3.9% 11.2% 22.3% 20.6% 32.3% 3.8% 1.0% 0.6% 0.4%



Скриншоты:
[+] Всего файлов в раздаче - 1:
Аладдин_Aladdin (2019) BDRip.H.264.720p.NNMClub.mkv5.39 GB

Показать еще раздачи по запросу аладдин:
2020-01-09 U Аладдин / Aladdin (2019) BDRip от HQ-ViDEO | D | Лицензия 2.18 GB ↑ 46 ↓ 18
2019-12-08 U Аладдин / Aladdin (2019) BDRip 1080p от qqss44 & MegaPeer | Лицензия 7.75 GB ↑ 328 ↓ 13
2019-10-06 U Аладдин / Aladdin (2019) HDRip от Scarabey | Лицензия 2.17 GB ↑ 72 ↓ 11
2019-10-03 U Аладдин / Aladdin (2019) BDRip от MegaPeer | Лицензия 1.46 GB ↑ 208 ↓ 117
2019-09-04 U Аладдин / Aladdin (2019) BDRip от Twister & ExKinoRay | iTunes 2.13 GB ↑ 281 ↓ 16
2019-09-03 U Аладдин / Aladdin (2019) BDRip 720p от Scarabey | iTunes 5.91 GB ↑ 96 ↓ 32
2019-09-01 U Аладдин / Aladdin (2019) HDRip от Scarabey | iTunes 794.55 MB ↑ 177 ↓ 37

Отзывы
Зарегистрируйтесь чтобы добавить комментарий.
Обратная связь
Copyleft ©