↑↓Torrent.by
Поиск
Логин: Регистрация
Пароль: Восстановить пароль
Загрузка...

Fate/stay night Movie: Heaven's Feel - II. Lost Butterfly / Судьба: Ночь схватки. Прикосновение Небес - II. Потерявшаяся бабочка [2019, MV] BDRip 1080p Rus

Скачать fate-stay-night-movie-heaven-s-feel-ii-lost-butterfly-sudba-noch-shvatki-prikosnovenie-nebes-poteryavshayasya-babochka-2019-mv-bdrip-1080p-rus.torrent
U Магнитная ссылка Размер: 10.68 GB Раздают: 0 Качают: 1 Добавлен: 2019-08-30 19:50:14

Fate/stay night Movie: Heaven's Feel - II. Lost Butterfly
Судьба: Ночь схватки. Прикосновение Небес - II. Потерявшаяся бабочка

Жанр: приключения, фэнтези
Тип: полнометражный фильм
Продолжительность: 120 мин.
Премьера: 12.01.2019
Автор: Насу Киноко
Снято по игре: Fate/Stay Night
Режиссер: Судо Томонори
Производство: UFO Table Информационные ссылки: AniDB || World Art || MAL || ANN Релиз подготовлен студией Wakanim
Тип озвучки: Дублированный, профессиональный

Описание:
Война Священного Грааля: жестокая битва между магами, в которой семь мастеров и их призванные слуги сражаются за Святой Грааль, магический артефакт, который может даровать победителю любое желание. Почти 10 лет назад Последняя битва четвертой войны Святого Грааля нанесла ущерб городу Фуюки и унесла более 500 жизней, оставив город опустошенным.
Широ Эмия, переживший эту трагедию, стремится стать героем справедливости, как его спаситель и приемный отец, Кирицугу Эмия. Несмотря на это, только будучи студентом Широ бросается в пятую войну Святого Грааля, когда он случайно видит битву между слугами в школе и призывает своего собственного слугу, Сэйбер.
Когда таинственная тень начинает убийственное веселье в городе Фуюки, Широ присоединяется к Рин Тосаке, соучастнику войны Святого Грааля, чтобы остановить гибель бесчисленного количества людей. Тем не менее, чувства Широ к его близкому другу Сакуре Мато ведут его глубже в темные тайны, окружающие войну и враждующие семьи.
Качество: BDRip | Энкод: Moozzi2
Язык озвучки: Японский и Русский
Формат: MKV
Видео: x264, 1920x1080, ~8 335 kbps, 23.976 fps
Аудио: DTS, 4 071 kbps, 48.0 kHz, 6 ch
Аудио: AAC, 640 kbps, 48.0 kHz, 6 ch
[+] Тех. параметры:

Unique ID: 63343153898994747159042025641006004992 (0x2FA7729B96CB2DA26B8DB0B5D19AFB00)
Complete name: [Wakanim] Fate Stay Night Heaven's Feel - 02 [ lost butterfly ] [BD] [1080p].mkv
Format: Matroska
Format version: Version 4
File size: 10.7 GiB
Duration: 1 h 57 min
Overall bit rate mode: Variable
Overall bit rate: 13.0 Mb/s
Encoded date: UTC 2019-08-30 16:14:27
Writing application: mkvmerge v37.0.0 ('Leave It') 64-bit
Writing library: libebml v1.3.9 + libmatroska v1.5.2

Video
ID: 1
Format: AVC
Format/Info: Advanced Video Codec
Format profile: High@L5
Format settings: CABAC / 5 Ref Frames
Format settings, CABAC: Yes
Format settings, Reference: 5 frames
Codec ID: V_MPEG4/ISO/AVC
Duration: 1 h 57 min
Bit rate: 8 335 kb/s
Width: 1 920 pixels
Height: 1 080 pixels
Display aspect ratio: 16:9
Frame rate mode: Constant
Frame rate: 23.976 (24000/1001) FPS
Color space: YUV
Chroma subsampling: 4:2:0
Bit depth: 8 bits
Scan type: Progressive
Bits/(Pixel*Frame): 0.168
Stream size: 6.82 GiB (64%)
Writing library: x264 core 157 r2935 545de2f
Encoding settings: cabac=1 / ref=5 / deblock=1:1:1 / analyse=0x3:0x113 / me=umh / subme=9 / psy=1 / psy_rd=1.00:0.00 / mixed_ref=1 / me_range=32 / chroma_me=1 / trellis=1 / 8x8dct=1 / cqm=0 / deadzone=21,11 / fast_pskip=0 / chroma_qp_offset=-2 / threads=34 / lookahead_threads=2 / sliced_threads=0 / nr=0 / decimate=1 / interlaced=0 / bluray_compat=0 / stitchable=1 / constrained_intra=0 / bframes=3 / b_pyramid=2 / b_adapt=2 / b_bias=0 / direct=1 / weightb=1 / open_gop=0 / weightp=1 / keyint=240 / keyint_min=23 / scenecut=40 / intra_refresh=0 / rc_lookahead=40 / rc=crf / mbtree=1 / crf=16.0 / qcomp=0.65 / qpmin=0 / qpmax=69 / qpstep=4 / ip_ratio=1.40 / aq=1:1.00
Language: Japanese
Default: Yes
Forced: No

Audio #1
ID: 2
Format: AAC LC
Format/Info: Advanced Audio Codec Low Complexity
Codec ID: A_AAC-2
Duration: 1 h 57 min
Bit rate: 637 kb/s
Channel(s): 6 channels
Channel layout: C L R Ls Rs LFE
Sampling rate: 48.0 kHz
Frame rate: 46.875 FPS (1024 SPF)
Compression mode: Lossy
Stream size: 534 MiB (5%)
Language: Russian
Default: Yes
Forced: No

Audio #2
ID: 3
Format: DTS XLL
Format/Info: Digital Theater Systems
Commercial name: DTS-HD Master Audio
Codec ID: A_DTS
Duration: 1 h 57 min
Bit rate mode: Variable
Bit rate: 4 071 kb/s
Channel(s): 6 channels
Channel layout: C L R Ls Rs LFE
Sampling rate: 48.0 kHz
Frame rate: 93.750 FPS (512 SPF)
Bit depth: 24 bits
Compression mode: Lossless
Stream size: 3.33 GiB (31%)
Language: Japanese
Default: No
Forced: No



[+] Всего файлов в раздаче - 1:

Похожие раздачи по запросу - fate:
2018-01-16 U За гранью 11. Линии судьбы. Коллекционное издание / Surface 11: Strings of Fate. Collector's Edition (2017) PC 1.68 GB ↑ 349 ↓ 34

Отзывы
Зарегистрируйтесь чтобы добавить комментарий.
Обратная связь
Copyleft ©