↑↓torrent.by
Поиск
Логин: Регистрация
Пароль: Восстановить пароль

Дефектные: Доступ запрещён / The Defective [01x01-07 из 16] (2021) WEBRip 1080p от FortunaTV | StudioBand

Скачать defektnye-dostup-zapreschen-the-defective-01x01-07-iz-16-2021-webrip-1080p-ot-fortunatv-studioband.torrent
U Магнитная ссылка Размер: 3.90 GB Раздают: 58 Качают: 13 Добавлен: 2021-09-12 19:45:22
Дефектные: Доступ запрещён / The Defective [01x01-07 из 16] (2021) WEBRip 1080p от FortunaTV | StudioBand

Название: Дефектные: Доступ запрещён
Оригинальное название: The Defective
Год выхода: 2021
Жанр: экшен, фантастика, драма, военный, дунхуа
Режиссер: Неизвестно

О фильме:
Далёкое будущее. Космические корабли вовсю бороздят просторы вселенной. Человечество успешно освоило новые планеты, технический прогресс достиг невиданных высот, развитие идёт семимильными шагами. Однако ещё двести лет назад по новому галактическому исчислению всё было не так мирно и стабильно. Созданный Межгалактический Союз, в который вошли восемь галактик, страдал от постоянных нападений пиратов. Лидер Первой галактики успешно справился с пиратами, и за прошедшие двести с лишним лет пиратов удалось выдавить в пределы самой дальней и самой неблагоустроенной Восьмой галактики, где проживают отбросы всего космического общества. И всё, наверное, было бы чудесно, будь пираты — в самом деле пиратами, но в действительности «пиратами» окрестили всех, кто был не согласен с единоличной властью Первой галактики. Может быть, времена и масштаб изменились, а вот коварная и неизменная природа человека осталась прежней. По-прежнему политика связана с преступлениями, интригами и предательством. В таких условиях придётся выживать нашему главному герою — бывшему генералу Межгалактического Союза Линь Цзинхену, который оказался зажат в зарождающемся конфликте между пиратами и правительством. © Shikimori

Страница рейтинга отсутствует на IMDB и Кинопоиск

Страна: Китай
Продолжительность: ~ 00:22:00 (серия)
Перевод: Профессиональный (многоголосый, закадровый) | StudioBand

Файл
Формат: MP4
Кодек: MPEG-4 AVC
Качество: WEBRip 1080p
Видео: 1920x1080, ~ 4 100 kb/s, 23.976 FPS. 8 bits
Аудио (русский): AAC LC, ~ 128 kb/s, 2 channels, 48.0 kHz
Субтитры: русские (на надписи, вшитые)

Релиз от: FortunaTV

11.09.2021 обновлено. Добавлена 7-я серия. Приятного просмотра.

В видеоряде присутствует название аниме (в правом нижнем углу)
[+] MediaInfo

General
Complete name : FT] The Defective - 01.mp4
Format : MPEG-4
Format profile : Base Media
Codec ID : isom (isom/iso2/avc1/mp41)
File size : 644 MiB
Duration : 21 min 22 s
Overall bit rate : 4 169 kb/s
Writing application : Lavf58.45.100

Video
ID : 1
Format : AVC
Format/Info : Advanced Video Codec
Format profile : High@L4
Format settings : CABAC / 4 Ref Frames
Format settings, CABAC : Yes
Format settings, Reference frames : 4 frames
Codec ID : avc1
Codec ID/Info : Advanced Video Coding
Duration : 23 min 39 s
Bit rate : 4 100 kb/s
Width : 1 920 pixels
Height : 1 080 pixels
Display aspect ratio : 16:9
Frame rate mode : Variable
Frame rate : 23.976 FPS
Minimum frame rate : 23.564 FPS
Maximum frame rate : 24.390 FPS
Color space : YUV
Chroma subsampling : 4:2:0
Bit depth : 8 bits
Scan type : Progressive
Bits/(Pixel*Frame) : 0.082
Stream size : 683 MiB (97%)
Writing library : x264 core 155
Encoding settings : cabac=1 / ref=3 / deblock=1:0:0 / analyse=0x3:0x113 / me=hex / subme=6 / psy=1 / psy_rd=1.00:0.00 / mixed_ref=0 / me_range=16 / chroma_me=1 / trellis=1 / 8x8dct=1 / cqm=0 / deadzone=21,11 / fast_pskip=1 / chroma_qp_offset=-2 / threads=24 / lookahead_threads=4 / sliced_threads=0 / nr=0 / decimate=1 / interlaced=0 / bluray_compat=0 / constrained_intra=0 / bframes=3 / b_pyramid=2 / b_adapt=1 / b_bias=0 / direct=1 / weightb=1 / open_gop=0 / weightp=2 / keyint=250 / keyint_min=23 / scenecut=0 / intra_refresh=0 / rc_lookahead=40 / rc=abr / mbtree=1 / bitrate=4100 / ratetol=1.0 / qcomp=0.60 / qpmin=0 / qpmax=69 / qpstep=4 / vbv_maxrate=4700 / vbv_bufsize=23500 / nal_hrd=none / filler=0 / ip_ratio=1.40 / aq=1:1.00
Tagged date : UTC 2021-07-04 16:33:30
Codec configuration box : avcC

Audio
ID : 2
Format : AAC LC
Format/Info : Advanced Audio Codec Low Complexity
Codec ID : mp4a-40-2
Duration : 21 min 22 s
Bit rate mode : Constant
Bit rate : 128 kb/s
Channel(s) : 2 channels
Channel layout : L R
Sampling rate : 48.0 kHz
Frame rate : 46.875 FPS (1024 SPF)
Compression mode : Lossy
Stream size : 21.9 MiB (3%)
Default : Yes
Alternate group : 1



Скриншоты:
[+] Всего файлов в раздаче - 7:
[FT] The Defective - 01.mp4643.58 MB
[FT] The Defective - 02.mp4542.44 MB
[FT] The Defective - 03.mp4627.83 MB
[FT] The Defective - 04.mp4600.13 MB
[FT] The Defective - 05.mp4553.86 MB
[FT] The Defective - 06.mp4498.36 MB
[FT] The Defective - 07.mp4524.64 MB

Похожие раздачи по запросу - дефектные:
2021-09-08 U Дефектные: Доступ запрещён / The Defective [01x01-06 из 16] (2021) WEBRip 1080p от FortunaTV | StudioBand 3.38 GB ↑ 18 ↓ 11

Отзывы
Зарегистрируйтесь чтобы добавить комментарий.
Загрузите программу
  byTorrent
Обратная связь
Copyleft ©