↑↓torrent.by
Поиск
Логин: Регистрация
Пароль: Восстановить пароль

Босс-молокосос 2 / The Boss Baby: Family Business (2021) HDRip-AVC | Pazl Voice

Скачать boss-molokosos-2-the-baby-family-business-2021-hdrip-avc-pazl-voice.torrent
U Магнитная ссылка Размер: 2.18 GB Раздают: 61 Качают: 34 Добавлен: 2021-09-12 19:45:31
Босс-молокосос 2 / The Boss Baby: Family Business (2021) HDRip-AVC | Pazl Voice

Название: Босс-молокосос 2
Оригинальное название: The Boss Baby: Family Business
Год выхода: 2021
Жанр:  мультфильм, комедия, приключения, семейный
Режиссер: Том МакГрат
В ролях: Алек Болдуин, Джеймс Марсден, Эми Седарис, Ариана Гринблатт, Джефф Голдблюм, Ева Лонгория, Джеймс МакГрат, Джимми Киммел, Лиза Кудроу, Рафаэль Алехандро

О фильме:
Братья Тим и Тед давно повзрослели и отдалились друг от друга. Тед стал генеральным директором инвестиционного фонда, а Тим посвятил себя семье. Он женился, поселился в пригороде и обзавелся двумя прекрасными дочерьми — Тиной и Табитой. 7-летняя Табита — умная и очень усердная. Несмотря на свой юный возраст, она уже лучшая в классе, а малышка Тина на самом деле оказывается агентом компании BabyCorp.
Узнав, что злой гений доктор Эрвин Армстронг выращивает целую армию злобных малышей, Тина с помощью своего папы и дяди решает противостоять ему.

Страна: США
Продолжительность: 01:47:12
Перевод: Любительский (двухголосый, закадровый) | Pazl Voice
Субтитры: Русские, английские
► Без Рекламы!

Файл                                      
Формат: Matroska
Качество: HDRip-AVC
Видео: 1024x428 at 23.976 fps, x264@L4.1, ~2466 kbps, 0.235 bpp
Аудио: AC3, 6 ch, ~448 kbps - | Русский | -
Формат субтитров: softsub (SRT)

***Релиз от: -=DoMiNo=-


[+] M/I
x264 [info]: frame I:1426  Avg QP:15.05  size: 66957
x264 [info]: frame P:45509 Avg QP:18.46  size: 23279
x264 [info]: frame B:107296 Avg QP:21.17  size:  7717
x264 [info]: consecutive B-frames:  5.6%  6.5% 12.7% 56.6%  7.1%  8.9%  1.0%  1.5%  0.1%  0.1%

General
Unique ID                   : 90516095241123849754014102325338101171 (0x4418C40D438504F0A54069905470D5B3)
Complete name               : K:Босс-молокосос-2.(2021).HDRip-AVC.[-=DoMiNo=-].mkv
Format                      : Matroska
Format version              : Version 4
File size                   : 2.18 GiB
Duration                    : 1 h 47 min
Overall bit rate            : 2 916 kb/s
Movie name                  : Босс-молокосос-2.(2021).HDRip-AVC.[-=DoMiNo=-]
Encoded date                : UTC 2021-09-12 10:58:58
Writing application         : mkvmerge v61.0.0 ('So') 64-bit
Writing library             : libebml v1.4.2 + libmatroska v1.6.4
Cover                       : Yes
Attachments                 : Cover.jpg / Cover 2.jpg

Video
ID                          : 1
Format                      : AVC
Format/Info                 : Advanced Video Codec
Format profile              : High@L4.1
Format settings             : CABAC / 15 Ref Frames
Format settings, CABAC      : Yes
Format settings, Reference  : 15 frames
Codec ID                    : V_MPEG4/ISO/AVC
Duration                    : 1 h 47 min
Bit rate                    : 2 466 kb/s
Width                       : 1 024 pixels
Height                      : 428 pixels
Display aspect ratio        : 2.40:1
Frame rate mode             : Constant
Frame rate                  : 23.976 (24000/1001) FPS
Color space                 : YUV
Chroma subsampling          : 4:2:0
Bit depth                   : 8 bits
Scan type                   : Progressive
Bits/(Pixel*Frame)          : 0.235
Stream size                 : 1.85 GiB (85%)
Title                       : -=DoMiNo=-
Writing library             : x264 core 164 r3065+55M 280faca t_mod_New [(8 & 10)-bit@all X86_64]
Encoding settings           : cabac=1 / ref=15 / deblock=1:-3:-2 / analyse=0x3:0x133 / me=umh / subme=10 / psy=1 / fade_compensate=0.00 / psy_rd=1.00:0.00 / mixed_ref=1 / me_range=32 / chroma_me=1 / trellis=2 / 8x8dct=1 / cqm=0 / deadzone=21,11 / fast_pskip=0 / chroma_qp_offset=-2 / threads=24 / lookahead_threads=3 / sliced_threads=0 / nr=0 / decimate=0 / interlaced=0 / bluray_compat=0 / constrained_intra=0 / fgo=0 / bframes=9 / b_pyramid=2 / b_adapt=2 / b_bias=0 / direct=3 / weightb=1 / open_gop=0 / weightp=2 / keyint=240 / keyint_min=23 / scenecut=40 / intra_refresh=0 / rc_lookahead=60 / rc=2pass / mbtree=0 / bitrate=2466 / ratetol=1.0 / qcomp=0.75 / qpmin=0:0:0 / qpmax=69:69:69 / qpstep=4 / cplxblur=20.0 / qblur=0.5 / vbv_maxrate=50000 / vbv_bufsize=62500 / nal_hrd=none / filler=0 / ip_ratio=1.40 / pb_ratio=1.30 / aq=3:0.80 / aq-sensitivity=10.00 / aq-factor=1.00:1.00:1.00 / aq2=0 / aq3=0
Language                    : English
Default                     : Yes
Forced                      : No

Audio
ID                          : 2
Format                      : AC-3
Format/Info                 : Audio Coding 3
Commercial name             : Dolby Digital
Codec ID                    : A_AC3
Duration                    : 1 h 47 min
Bit rate mode               : Constant
Bit rate                    : 448 kb/s
Channel(s)                  : 6 channels
Channel layout              : L R C LFE Ls Rs
Sampling rate               : 48.0 kHz
Frame rate                  : 31.250 FPS (1536 SPF)
Compression mode            : Lossy
Stream size                 : 344 MiB (15%)
Title                       : DVO | Pazl Voice
Language                    : Russian
Service kind                : Complete Main
Default                     : Yes
Forced                      : No

Text #1
ID                          : 3
Format                      : UTF-8
Codec ID                    : S_TEXT/UTF8
Codec ID/Info               : UTF-8 Plain Text
Duration                    : 1 h 37 min
Bit rate                    : 129 b/s
Count of elements           : 1945
Stream size                 : 92.6 KiB (0%)
Language                    : Russian
Default                     : No
Forced                      : No

Text #2
ID                          : 4
Format                      : UTF-8
Codec ID                    : S_TEXT/UTF8
Codec ID/Info               : UTF-8 Plain Text
Duration                    : 1 h 40 min
Bit rate                    : 82 b/s
Count of elements           : 2172
Stream size                 : 61.0 KiB (0%)
Title                       : SRT
Language                    : English
Default                     : No
Forced                      : No

Menu
00:00:00.000                : Chapter 01
00:04:18.383                : Chapter 02
00:09:50.673                : Chapter 03
00:13:43.364                : Chapter 04
00:19:51.816                : Chapter 05
00:24:55.119                : Chapter 06
00:29:12.125                : Chapter 07
00:34:22.018                : Chapter 08
00:38:09.245                : Chapter 09
00:44:36.299                : Chapter 10
00:51:25.124                : Chapter 11
01:00:47.853                : Chapter 12
01:04:54.474                : Chapter 13
01:08:08.209                : Chapter 14
01:13:27.403                : Chapter 15
01:18:38.172                : Chapter 16
01:22:44.418                : Chapter 17
01:27:13.437                : Chapter 18
01:35:06.701                : Chapter 19
01:38:13.721                : Chapter 20



Скриншоты:
[+] Всего файлов в раздаче - 1:
Босс-молокосос-2.(2021).HDRip-AVC.[-=DoMiNo=-].mkv2.18 GB

Похожие раздачи по запросу - босс:
2021-09-11 U Босс-молокосос 2 / The Boss Baby: Family Business (2021) BDRip 1080p | Pazl Voice 8.03 GB ↑ 72 ↓ 76
2021-08-25 U Адский Босс / Helluva Boss [01x00-06 из 08] (2019) WEBRip 1080p | NewStation 1.72 GB ↑ 22 ↓ 3
2021-07-14 U Босс-молокосос 2 / Бебі Бос 2: Сімейний бізнес / The Boss Baby: Family Business (2021) WEB-DL 1080p | Line | UKR 5.78 GB ↑ 90 ↓ 28
2021-07-10 U Босс-молокосос 2 / The Boss Baby: Family Business (2021) WEB-DL 1080p | Pazl Voice 5.98 GB ↑ 1142 ↓ 334

Отзывы
Зарегистрируйтесь чтобы добавить комментарий.
Загрузите программу
  byTorrent
Обратная связь
Copyleft ©