↑↓torrent.by
Поиск
Логин: Регистрация
Пароль: Восстановить пароль

Огрики / Smelliville (2021) WEB-DL 1080p от ELEKTRI4KA | iTunes

Скачать ogriki-smelliville-2021-web-dl-1080p-ot-elektri4ka-itunes.torrent
U Магнитная ссылка Размер: 4.10 GB Раздают: 86 Качают: 37 Добавлен: 2021-09-12 19:45:41
Огрики / Smelliville (2021) WEB-DL 1080p от ELEKTRI4KA | iTunes

«Добро пожаловать в Нюхвиль!»

Информация
Название: Огрики
Оригинальное название: Smelliville
Год выхода: 2021
Жанр: Мультфильм, приключения, семейный
Режиссер: Тоби Генкель, Дженс Мюллер
В ролях: Семадж Александр Каннингем, Кайя Стейн, Бен Янг, Лили Хелд, Тони Кларк, Сьюзэн Такенберг, Джеральдин Блекер, Том Цанер, Андреа Дьюэлл, Фил Льюис

Описание: Семейство Огриков на большом зеленом драконе прилетает в тихий город Нюхвиль, но местные жители почему-то им совсем не рады. И никто кроме юного изобретателя Макса и его подруги Лотти не подозревает, что только Огрики смогут спасти город от надвигающейся опасности.

Выпущено: Германия, Бельгия / WunderWerk, Grid Animation, Verlag Friedrich Oetinger
Продолжительность: 01:24:34
Озвучивание: Дублированное | iTunes

Файл
Формат: MKV
Качество: WEB-DL 1080p
Видео: MPEG-4 AVC, 6560 Kb/s, 1920x1032
Аудио: Russian: 48 kHz, AC3 Dolby Digital, 3/2 (L, C, R, l, r) + LFE ch, ~384 Kbps | DUB | iTunes
Субтитры: Нет
Дополнительно: Сохранены оригинальные чаптеры.

Релиз: &


[+] MediaInfo:
Complete name: Ogriki.2021.WEB-DL.1080p.ELEKTRI4KA.UNIONGANG.mkv
Format: Matroska
Format version: Version 4
File size: 4.10 GiB
Duration: 1 h 24 min
Overall bit rate: 6 943 kb/s
Movie name: Ogriki.2021.WEB-DL.1080p.ELEKTRI4KA.UNIONGANG.
Encoded date: UTC 2021-09-09 20:42:43
Writing application: mkvmerge v8.3.0 ('Over the Horizon') 32bit
Writing library: libebml v1.3.1 + libmatroska v1.4.2

Video
ID: 1
Format: AVC
Format/Info: Advanced Video Codec
Format profile: High@L4
Format settings: CABAC / 4 Ref Frames
Format settings, CABAC: Yes
Format settings, Reference frames: 4 frames
Codec ID: V_MPEG4/ISO/AVC
Duration: 1 h 24 min
Bit rate: 6 560 kb/s
Width: 1 912 pixels
Height: 1 032 pixels
Display aspect ratio: 1.85:1
Frame rate mode: Constant
Frame rate: 24.000 FPS
Color space: YUV
Chroma subsampling: 4:2:0
Bit depth: 8 bits
Scan type: Progressive
Bits/(Pixel*Frame): 0.139
Stream size: 3.87 GiB (94%)
Default: Yes
Forced: No
Color range: Limited
Color primaries: BT.709
Transfer characteristics: BT.709
Matrix coefficients: BT.709

Audio
ID: 2
Format: AC-3
Format/Info: Audio Coding 3
Commercial name: Dolby Digital
Codec ID: A_AC3
Duration: 1 h 24 min
Bit rate mode: Constant
Bit rate: 384 kb/s
Channel(s): 6 channels
Channel layout: L R C LFE Ls Rs
Sampling rate: 48.0 kHz
Frame rate: 31.250 FPS (1536 SPF)
Compression mode: Lossy
Stream size: 232 MiB (6%)
Title: DUB (iTunes)
Language: Russian
Service kind: Complete Main
Default: Yes
Forced: No

Menu
00:00:00.000: en:Scene 1
00:06:04.000: en:Scene 2
00:11:20.000: en:Scene 3
00:17:24.000: en:Scene 4
00:22:29.000: en:Scene 5
00:27:51.000: en:Scene 6
00:33:48.000: en:Scene 7
00:39:37.000: en:Scene 8
00:47:04.000: en:Scene 9
00:52:55.000: en:Scene 10
00:57:10.000: en:Scene 11
01:01:20.000: en:Scene 12
01:05:41.000: en:Scene 13
01:11:45.000: en:Scene 14
01:16:51.000: en:Scene 15
01:20:20.000: en:Scene 16



Скриншоты:
[+] Всего файлов в раздаче - 1:
Ogriki.2021.WEB-DL.1080p.ELEKTRI4KA.UNIONGANG.mkv4.10 GB

Похожие раздачи по запросу - огрики:
2021-09-13 U Огрики / Smelliville (2021) WEB-DLRip-AVC | iTunes 1.45 GB ↑ 22 ↓ 7
2021-09-12 U Огрики / Smelliville (2021) WEB-DLRip от ELEKTRI4KA | iTunes 1.37 GB ↑ 95 ↓ 47

Отзывы
Зарегистрируйтесь чтобы добавить комментарий.
Загрузите программу
  byTorrent
Обратная связь
Copyleft ©