↑↓Torrent.by
Поиск
Логин: Регистрация
Пароль: Восстановить пароль
Загрузка...

Половодье (1963) SATRip от New-Team

Скачать polovode-1963-satrip-ot-new-team.torrent
U Магнитная ссылка Размер: 1.09 GB Раздают: 5 Качают: 1 Добавлен: 2019-09-02 19:32:40

Страна: СССР
Производство: Мосфильм

Жанр:  драма
Год выпуска: 1963
Продолжительность: 01:31:21

Перевод: Не требуется
Cубтитры: нет
Оригинальная аудиодорожка: русский

Режиссер: Искра Бабич

В ролях:
Галина Яцкина, Валентин Зубков, Евгений Шутов, Вера Кузнецова, Софья Гаррель, Наталья Никонова, Руфина Яковлева, Валентина Березуцкая, Ольга Маркина, Раиса Андриуцэ-Кириллова, Наталья Крачковская, Т. Богданова (II), Рудольф Панков, Владимир Смирнов, Сергей Калинин...
Об актёрах подробней

Описание:
Молодая доярка Даша (Галина Яцкина), героиня труда, вышла замуж за Зиновия (Валентин Зубков). Построили дом, завели хозяйство, отгородились забором. В ожидании первенца Зиновий отсчитывал дни и мечтал о переезде в город.





Исходник: DVB
Качество видео: SATRip
Формат видео: AVI

Видео: 704x528 (4:3), 25,000 кадров/сек, XviD ~ 1507 kbps avg, 0.162 bit/pixel
Аудио: 48 kHz, Dolby Digital AC3 2.0, 192 kbps

Раздача от:
[+] "MediaInfo"

Общее
Полное имя                               : Polovode.1963.SATRip_[New-team]_by_AVP_Studio.avi
Формат                                   : AVI
Формат/Информация                        : Audio Video Interleave
Размер файла                             : 1,09 Гбайт
Продолжительность                        : 1 ч. 31 м.
Общий поток                              : 1708 Кбит/сек
Программа кодирования                    : VirtualDubMod 1.5.10.3 | http://www.virtualdub-fr.org || (build 2550/release)
Библиотека кодирования                   : VirtualDubMod build 2550/release

Видео
Идентификатор                            : 0
Формат                                   : MPEG-4 Visual
Профиль формата                          : Advanced Simple@L5
Настройки формата                        : BVOP1 / Custom Matrix
Параметр BVOP формата                    : 1
Параметр QPel формата                    : Нет
Параметр GMC формата                     : Без точки перехода
Параметр матрицы формата                 : Выборочная
Идентификатор кодека                     : XVID
Идентификатор кодека/Подсказка           : XviD
Продолжительность                        : 1 ч. 31 м.
Битрейт                                  : 1507 Кбит/сек
Ширина                                   : 704 пикселя
Высота                                   : 528 пикселей
Соотношение сторон                       : 4:3
Частота кадров                           : 25,000 кадров/сек
Цветовое пространство                    : YUV
Субдискретизация насыщенности            : 4:2:0
Битовая глубина                          : 8 бит
Тип развёртки                            : Прогрессивная
Метод сжатия                             : С потерями
Бит/(Пиксели*Кадры)                      : 0.162
Размер потока                            : 984 Мбайт (88%)
Библиотека кодирования                   : XviD 73

Аудио
Идентификатор                            : 1
Формат                                   : AC-3
Формат/Информация                        : Audio Coding 3
Коммерческое название                    : Dolby Digital
Идентификатор кодека                     : 2000
Продолжительность                        : 1 ч. 31 м.
Вид битрейта                             : Постоянный
Битрейт                                  : 192 Кбит/сек
Каналы                                   : 2 канала
ChannelLayout                            : L R
Частота                                  : 48,0 КГц
Частота кадров                           : 31,250 кадров/сек (1536 SPF)
Битовая глубина                          : 16 бит
Метод сжатия                             : С потерями
Размер потока                            : 125 Мбайт (11%)
Выравнивание                             : Разделение по промежуткам
Продолжительность промежутка             : 40  мс. (1,00 видеокадр)
Время предзагрузки промежутка            : 500  мс


[+] "Скриншоты"

     

[+] Всего файлов в раздаче - 1:
Polovode.1963.SATRip_[New-team]_by_AVP_Studio.avi1.09 GB

Отзывы
Зарегистрируйтесь чтобы добавить комментарий.
Обратная связь
Copyleft ©