↑↓torrent.by
Поиск
Логин: Регистрация
Пароль: Восстановить пароль

У ангела ангина (2018) WEBRip 1080p

Скачать u-angela-angina-2018-webrip-1080p.torrent
U Магнитная ссылка Размер: 3.91 GB Раздают: 132 Качают: 51 Добавлен: 2021-09-12 19:46:04
У ангела ангина (2018) WEBRip 1080p

Оригинальное название: У ангела ангина
Год выпуска: 2018
Жанр:  Мелодрама, экранизация
Режиссер: Оксана Карас
В ролях: Семён Трескунов, Евгений Цыганов, Мария Крылова (II), Николай Фоменко, Юлия Ауг, Таисия Вилкова, Данил Стеклов, Василий Буткевич, Ирина Пегова, Александр Яценко, Артём Немов, Надежда Толубеева, Варвара Владимирова, Виктория Коваленко

О фильме:
По мотивам повести Вадима Шефнера «Сестра печали». Бывшему детдомовцу Толе Ковригину по кличке Чухна – 18 лет. Он и его друзья, Костя Синявый и Володя Шкилет, живут в одной комнате на Васильевском острове в самом прекрасном городе на земле - Ленинграде. Синявый любит кутить и флиртовать с девушками, которых называет «кошки-милашки». Шкилет пишет стихи и мечтает поступить в военное училище. Они гуляют, пьют вино, спорят, ревнуют, танцуют фокстроты, верят в свое счастливое будущее и игнорируют все приметы грядущей катастрофы. На дворе - белые ночи и поздняя весна 1940 года. Мир замер на пороге войны. А Чухна встречает любовь всей своей жизни - Лёлю. Фронт, блокада, смерть самых близких и неминуемое взросление - впереди. А сейчас они молоды и беспечны. И счастливы, как уже никогда больше не будут. Действие картины разворачивается сразу в двух временах - в 60-е и 40-е годы. Главный герой в 60-х – уже не просто Чухна, а успешный драматург Анатолий Ковригин.

Страна: Россия
Студия: Киностудия "ВайТ Медиа", "Централ Партнершип"
Продолжительность: 01:31:21
Язык: Русский
Cубтитры: Нет

Файл
Кодек: h.264
Качество: WEBRip 1080p
Видео: AVC/H.264, 1920x1080 (16:9), ~6000 Kbps
Аудио: AAC, 2 ch, 192 Kbps - русский


[+] M/I
Общее
Уникальный идентификатор                 : 55410410422850419459039960452130418656 (0x29AFA82865BC1445F414CBCFCC782FE0)
Полное имя                               : D:1У ангела ангина (2018).by.Alexandr.mkv
Формат                                   : Matroska
Версия формата                           : Version 4
Размер файла                             : 3,91 Гбайт
Продолжительность                        : 1 ч. 31 м.
Общий поток                              : 6 132 Кбит/сек
Название фильма                          : У ангела ангина.2018.by.Alexandr
Дата кодирования                         : UTC 2021-09-11 12:32:32
Программа кодирования                    : mkvmerge v26.0.0 ('In The Game') 64-bit
Библиотека кодирования                   : libebml v1.3.6 + libmatroska v1.4.9 / Lavf58.12.100

Видео
Идентификатор                            : 1
Формат                                   : AVC
Формат/Информация                        : Advanced Video Codec
Профиль формата                          : High@L4.1
Настройки формата                        : 2 Ref Frames
Параметр CABAC формата                   : Нет
Параметр RefFrames формата               : 2 кадра
Идентификатор кодека                     : V_MPEG4/ISO/AVC
Продолжительность                        : 1 ч. 31 м.
Вид битрейта                             : Постоянный
Битрейт                                  : 6 000 Кбит/сек
Ширина                                   : 1 920 пикселей
Высота                                   : 1 080 пикселей
Соотношение сторон                       : 16:9
Режим частоты кадров                     : Постоянный
Частота кадров                           : 25,000 кадров/сек
Стандарт вещания                         : PAL
Цветовое пространство                    : YUV
Субдискретизация насыщенности            : 4:2:0
Битовая глубина                          : 8 бит
Тип развёртки                            : Прогрессивная
Бит/(Пиксели*Кадры)                      : 0.116
Размер потока                            : 3,79 Гбайт (97%)
Библиотека кодирования                   : AVC Coding
Язык                                     : English
Default                                  : Да
Forced                                   : Нет
Цветовой диапазон                        : Limited
Основные цвета                           : BT.709
Характеристики трансфера                 : BT.709
Коэффициенты матрицы                     : BT.709

Аудио
Идентификатор                            : 2
Формат                                   : AAC LC
Формат/Информация                        : Advanced Audio Codec Low Complexity
Идентификатор кодека                     : A_AAC-2
Продолжительность                        : 1 ч. 31 м.
Битрейт                                  : 192 Кбит/сек
Каналы                                   : 2 канала
Channel layout                           : L R
Частота                                  : 48,0 КГц
Частота кадров                           : 46,875 кадров/сек (1024 SPF)
Метод сжатия                             : С потерями
Задержка видео                           : -40 мс.
Размер потока                            : 128 Мбайт (3%)
Язык                                     : English
Default                                  : Да
Forced                                   : Нет



Скриншоты:
[+] Всего файлов в раздаче - 1:
У ангела ангина (2018).by.Alexandr.mkv3.91 GB

Похожие раздачи по запросу - ангела:
2021-09-12 U У ангела ангина (2018) WEBRip от Files-x 1.37 GB ↑ 59 ↓ 28
2021-09-12 U У ангела ангина (2018) WEBRip-AVC от Files-x 1.46 GB ↑ 44 ↓ 25

Отзывы
Зарегистрируйтесь чтобы добавить комментарий.
Загрузите программу
  byTorrent
Обратная связь
Copyleft ©