↑↓Torrent.by
Поиск
Логин: Регистрация
Пароль: Восстановить пароль
Загрузка...

Юнга со шхуны «Колумб» (1963) DVDRip от New-Team

Скачать yunga-so-shhuny-kolumb-1963-dvdrip-ot-new-team.torrent
U Магнитная ссылка Размер: 744.00 MB Раздают: 3 Качают: 4 Добавлен: 2019-09-03 19:45:34

Страна: СССР
Производство: Киностудия им. А. Довженко

Жанр:детский, приключения
Год выпуска: 1963
Продолжительность: 01:11:58

Перевод: Не требуется
Cубтитры: нет
Оригинальная аудиодорожка: русский

Режиссер: Евгений Шерстобитов

В ролях:
Ирина Мицик, Владимир Кисленко, Виктор Мирошниченко, Иван Рыжов, Сережа Кривошлыков, Татьяна Фатеева, Дмитрий Франько, Витольд Янпавлис...
Об актёрах подробней

Описание:
Подростки Марко и Лида, напав на след диверсанта, вовлекаются в гущу событий, связанных с поимкой шпиона. Благодаря ребятам, диверсанты, пытающиеся на захваченной шхуне «Колумб» уйти в открытое море, задерживаются пограничниками.



Источник: DVD5 R5
Качество видео: DVDRip
Формат видео: AVI

Видео: 688х352 (1,955:1), 25,000 fps, XviD ~ 1244 kbps avg, 0.205 bit/pixel
Аудио: 48 kHz, Dolby Digital AC3 2.0, 192 kbps

Раздача от:
[+] "MediaInfo"
[code]Общее
Полное имя : YUnga.so.shkhuny.Kolumb.1963.DVDRip_[New-team]_by_AVP_Studio.avi
Формат : AVI
Формат/Информация : Audio Video Interleave
Размер файла : 744 Мбайт
Продолжительность : 1 ч. 11 м.
Общий поток : 1445 Кбит/сек
Программа кодирования : VirtualDubMod 1.5.10.3 | www.virtualdub-fr.org || (build 2550/release)
Библиотека кодирования : VirtualDubMod build 2550/release

Видео
Идентификатор : 0
Формат : MPEG-4 Visual
Профиль формата : Advanced Simple@L5
Настройки формата : BVOP1 / Custom Matrix
Параметр BVOP формата : 1
Параметр QPel формата : Нет
Параметр GMC формата : Без точки перехода
Параметр матрицы формата : Выборочная
Идентификатор кодека : XVID
Идентификатор кодека/Подсказка : XviD
Продолжительность : 1 ч. 11 м.
Битрейт : 1244 Кбит/сек
Ширина : 688 пикселей
Высота : 352 пикселя
Соотношение сторон : 1,955
Частота кадров : 25,000 кадров/сек
Цветовое пространство : YUV
Субдискретизация насыщенности : 4:2:0
Битовая глубина : 8 бит
Тип развёртки : Прогрессивная
Метод сжатия : С потерями
Бит/(Пиксели*Кадры) : 0.205
Размер потока : 640 Мбайт (86%)
Библиотека кодирования : XviD 73

Аудио
Идентификатор : 1
Формат : AC-3
Формат/Информация : Audio Coding 3
Коммерческое название : Dolby Digital
Идентификатор кодека : 2000
Продолжительность : 1 ч. 11 м.
Вид битрейта : Постоянный
Битрейт : 192 Кбит/сек
Каналы : 2 канала
ChannelLayout : L R
Частота : 48,0 КГц
Частота кадров : 31,250 кадров/сек (1536 SPF)
Битовая глубина : 16 бит
Метод сжатия : С потерями
Размер потока : 98,8 Мбайт (13%)
Выравнивание : Разделение по промежуткам
Продолжительность промежутка : 40 мс. (1,00 видеокадр)
Время предзагрузки промежутка : 500 мс.[/code]


[+] "Скриншоты"



[+] Всего файлов в раздаче - 1:
YUnga.so.shkhuny.Kolumb.1963.DVDRip_[New-team]_by_AVP_Studio.avi744.00 MB

Отзывы
Зарегистрируйтесь чтобы добавить комментарий.
Обратная связь
Copyleft ©