↑↓Torrent.by
Поиск
Логин: Регистрация
Пароль: Восстановить пароль
Загрузка...

Добро пожаловать, или Посторонним вход воспрещен (1964) BDRip [H.264] [Реставрация КП]

Скачать dobro-pozhalovat-ili-postoronnim-vhod-vospreschen-1964-bdrip-h-264-restavraciya-kp.torrent
U Магнитная ссылка Размер: 3.42 GB Раздают: 4 Качают: 2 Добавлен: 2019-09-05 16:08:53

Добро пожаловать, или Посторонним вход воспрещен (1964) BDRip [H.264] [Реставрация КП]
Производство: СССР / Мосфильм
Жанр: комедия, семейный

Режиссер: Элем Климов
Актеры: Виктор Косых, Евгений Евстигнеев, Арина Алейникова, Илья Рутберг, Лидия Смирнова, Алексей Смирнов, Нина Шацкая, Лидия Волкова, Татьяна Барышева, Александр Байков

Описание:
Пионер Костя Иночкин, будучи в пионерском лагере, переплыл реку и оказался на запретной для посещений территории, за что и был изгнан его начальником товарищем Дыниным. Не желая доводить бабушку до инфаркта своим досрочным прибытием, мальчик тайно возвращается в лагерь, где пионеры так же тайно содержат его и предпринимают все меры, чтобы не состоялся родительский день. Ведь именно в этот день Костина бабушка заявится в лагерь…

https://www.imdb.com/title/tt0058022/?ref_=plg_rt_1
Возраст: 6+ (зрителям, достигшим 6 лет)

Релиз от: MAG3131

Продолжительность: 01:13:10
Качество видео: BDRip
Перевод: Не требуется (BD RUS)
Субтитры: Отсутствуют

Видео: AVC/H.264, 792x576, ~6236 kbps
Аудио: AC3, 6 ch, 448 kbps
[+] "Трейлер"

[+] "x.264 log"
[code]
-[Information] [04.09.2019 7:24:23] x264 [info]: frame I:587   Avg QP:15.78  size:117668
-[Information] [04.09.2019 7:24:23] x264 [info]: frame P:25511 Avg QP:18.03  size: 57631
-[Information] [04.09.2019 7:24:23] x264 [info]: frame B:79167 Avg QP:19.74  size: 23795
[/code]

[+] "MediaInfo:"
[code]
Общее
Уникальный идентификатор                 : 337970796940234465400875620771895037352 (0xFE42CECD002A1396D1FA3EBEE1A1CDA8)
Полное имя                               : Welcome.Or.No.Trespassing.1964.BDRip.RKP.mkv
Формат                                   : Matroska
Версия формата                           : Version 2
Размер файла                             : 3,42 Гбайт
Продолжительность                        : 1 ч. 13 м.
Общий поток                              : 6687 Кбит/сек
Название фильма                          : Добро пожаловать, или Посторонним вход воспрещен - MAG3131
Дата кодирования                         : UTC 2019-09-05 00:32:13
Программа кодирования                    : mkvmerge v37.0.0 ('Leave It') 64-bit
Библиотека кодирования                   : libebml v1.3.9 + libmatroska v1.5.2
Attachments                              : Лог кодирования.log

Видео
Идентификатор                            : 1
Формат                                   : AVC
Формат/Информация                        : Advanced Video Codec
Профиль формата                          : High@L4.1
Настройки формата                        : CABAC / 12 Ref Frames
Параметр CABAC формата                   : Да
Параметр RefFrames формата               : 12 кадров
Идентификатор кодека                     : V_MPEG4/ISO/AVC
Продолжительность                        : 1 ч. 13 м.
Битрейт                                  : 6236 Кбит/сек
Ширина                                   : 792 пикселя
Высота                                   : 576 пикселей
Соотношение сторон                       : 1,375
Режим частоты кадров                     : Постоянный
Частота кадров                           : 23,976 (24000/1001) кадра/сек
Цветовое пространство                    : YUV
Субдискретизация насыщенности            : 4:2:0
Битовая глубина                          : 8 бит
Тип развёртки                            : Прогрессивная
Бит/(Пиксели*Кадры)                      : 0.570
Размер потока                            : 3,12 Гбайт (91%)
Заголовок                                : Добро пожаловать, или Посторонним вход воспрещен
Библиотека кодирования                   : x264 core 157 r2935 545de2f
Настройки программы                      : cabac=1 / ref=12 / deblock=1:-1:-1 / analyse=0x3:0x133 / me=umh / subme=11 / psy=1 / psy_rd=1.00:0.15 / mixed_ref=1 / me_range=64 / chroma_me=1 / trellis=2 / 8x8dct=1 / cqm=0 / deadzone=21,11 / fast_pskip=0 / chroma_qp_offset=-3 / threads=6 / lookahead_threads=1 / sliced_threads=0 / nr=0 / decimate=0 / interlaced=0 / bluray_compat=0 / constrained_intra=0 / bframes=16 / b_pyramid=2 / b_adapt=2 / b_bias=0 / direct=3 / weightb=1 / open_gop=0 / weightp=2 / keyint=240 / keyint_min=23 / scenecut=40 / intra_refresh=0 / rc_lookahead=60 / rc=2pass / mbtree=0 / bitrate=6236 / ratetol=1.0 / qcomp=0.60 / qpmin=0 / qpmax=69 / qpstep=4 / cplxblur=20.0 / qblur=0.5 / vbv_maxrate=50000 / vbv_bufsize=62500 / nal_hrd=none / filler=0 / ip_ratio=1.40 / pb_ratio=1.30 / aq=1:1.00
Язык                                     : Russian
Default                                  : Да
Forced                                   : Нет

Аудио
Идентификатор                            : 2
Формат                                   : AC-3
Формат/Информация                        : Audio Coding 3
Коммерческое название                    : Dolby Digital
Идентификатор кодека                     : A_AC3
Продолжительность                        : 1 ч. 13 м.
Вид битрейта                             : Постоянный
Битрейт                                  : 448 Кбит/сек
Каналы                                   : 6 каналов
ChannelLayout                            : L R C LFE Ls Rs
Частота                                  : 48,0 КГц
Частота кадров                           : 31,250 кадров/сек (1536 SPF)
Битовая глубина                          : 16 бит
Метод сжатия                             : С потерями
Размер потока                            : 234 Мбайт (7%)
Заголовок                                : Оригинал (AC-3, Постоянный, 448 Кбит/сек, 6 каналов, 48,0 КГц, 16 бит)
Язык                                     : Russian
ServiceKind/String                       : Complete Main
Default                                  : Да
Forced                                   : Нет

Меню
00:00:00.000                             : :Глава 01
00:03:39.636                             : :Глава 02
00:07:41.252                             : :Глава 03
00:13:04.617                             : :Глава 04
00:16:49.592                             : :Глава 05
00:23:13.517                             : :Глава 06
00:26:13.489                             : :Глава 07
00:33:42.437                             : :Глава 08
00:38:29.349                             : :Глава 09
00:42:10.778                             : :Глава 10
00:46:03.094                             : :Глава 11
00:49:15.327                             : :Глава 12
00:57:17.351                             : :Глава 13
01:01:05.662                             : :Глава 14
01:05:37.725                             : :Глава 15
[/code]


Скриншоты:
     
[+] Всего файлов в раздаче - 1:
Welcome.Or.No.Trespassing.1964.BDRip.RKP.mkv3.42 GB

Похожие раздачи по запросу - добро:
2019-09-10 U Добро пожаловать в Рим / Как кошка на дороге / Come un gatto in tangenziale (2017) WEB-DL 1080p | P | iTunes 6.45 GB ↑ 103 ↓ 55
2019-09-10 U Добро пожаловать в Рим / Как кошка на дороге / Come un gatto in tangenziale (2017) WEB-DLRip | iTunes 1.46 GB ↑ 53 ↓ 28
2019-08-21 U Добро пожаловать в Акапулько / Welcome to Acapulco (2019) BDRip-AVC от OlLanDGroup | D 1.75 GB ↑ 28 ↓ 14
2019-08-20 U Добро пожаловать в Акапулько / Welcome to Acapulco (2019) BDRip | Лицензия 1.46 GB ↑ 66 ↓ 43
2019-04-09 U Добро пожаловать в Акапулько / Welcome to Acapulco (2019) WEB-DLRip от ExKinoRay | HDRezka Studio 1.37 GB ↑ 203 ↓ 73
2018-07-30 U Добро пожаловать в Zомбилэнд / Zombieland (2009) WEB-DL 1080p | D, A | Open Matte 2К9.51 GB ↑ 300 ↓ 8

Отзывы
Зарегистрируйтесь чтобы добавить комментарий.
Обратная связь
Copyleft ©