↑↓Torrent.by
Поиск
Логин: Регистрация
Пароль: Восстановить пароль
Загрузка...

В подземелье я пойду, там красавицу найду: Меч Оратории / Danmachi Sword Oratoria [S01] (2017) BDRip от Deadmauvlad | L2 | AniLibria

Скачать v-podzemele-ya-poydu-tam-krasavicu-naydu-mech-oratorii-danmachi-sword-oratoria-s01-2017-bdrip-ot-deadmauvlad-l2-anilibria.torrent
U Магнитная ссылка Размер: 4.05 GB Раздают: 0 Качают: 0 Добавлен: 2019-09-06 07:23:14

Информация о фильме
Название: В подземелье я пойду, там красавицу найду: Меч Оратории
Оригинальное название: Dungeon ni Deai o Motomeru no wa Machigatte Iru Darouka Gaiden: Sword Oratoria
Год выхода: 2017
Жанр: приключения, фэнтези
Режиссер: Судзуки Ёхэй
В ролях: Саори Оониси, Дзюри Кимура, Риэ Муракава, Минами Такахаси, Аяко Кавасуми, Юрика Кубо, Муцуми Тамура, Нобухико Окамото, Саяка Охара, Кэндзи Номура

О фильме:
Спин-офф аниме-сериала «В подземелье я пойду, там красавицу найду», главной героиней которого является одна из самых сильнейших мечниц города Орарио — Айз Валенштайн, известная среди всех также как «Принцесса меча».
История начинается, когда Айз вместе со своими союзниками отправляется в огромный лабиринт, известный как «Подземелье». Вместе они отправляются на пятидесятый уровень, на котором обитают различные неведомые создания, наподобие разлагающегося трупа дракона и многого другого. На том уровне она встречает юношу, которому требуется помощь. Тут, в этих лабиринтах города Орарио, и пересекаются истории девушки и юноши.

Страна: Япония
Студия: J.C. Staff
Продолжительность: 12x ~00:24:00
Перевод: Любительский (Двухголосый) | (муж/жен) от Sharon & LeeAnnushka (AniLibria)

Файл
Кодек: XviD
Качество: BDRip [Исходник BDRemux by antiBILLotic]
Видео:  720x400 (16:9), 23.976 fps, 1656 Кбит/сек (0.240 bit/pixel)
Аудио #1: AC3, 192 Kbps, 48.0 KHz, 2 ch | | Озвучка от AniLibria]
Аудио #2: AC3, 192 Kbps, 48.0 KHz, 2 ch | | Оригинал
Субтитры: Русские (Vaisiliok, Scarlet, Пиратехник [AniLibria])

[+] "MediaInfo"
Общее
Полное имя                               : В.подземелье.я.пойду.там.красавицу.найду.Меч.Оратории.2017.S01.L.AniLibria.BDRip.DeadmauvladMe4.OraTorII.2017.S01.L.AniLibria.BDRip.Deadmauvlad.Ep.01.avi
Формат                                   : AVI
Формат/Информация                        : Audio Video Interleave
Размер файла                             : 348 Мбайт
Продолжительность                        : 23 м. 42 с.
Общий поток                              : 2054 Кбит/сек
Название фильма                          : Me4.OraTorII.2017.S01.L.AniLibria.BDRip.Deadmauvlad.Ep.01
Режиссёр                                 : Encoder by Deadmauvlad
Жанр                                     : приключения, фэнтези
Программа кодирования                    : VirtualDubMod 1.5.10.3 | http://www.virtualdub-fr.org || (build 2550/release)
Формат оригинала/Имя                     : Anime
Авторское право                          : Encoder by Deadmauvlad
Примечание                               : Encoder by Deadmauvlad

Видео
Идентификатор                            : 0
Формат                                   : MPEG-4 Visual
Профиль формата                          : Advanced Simple@L5
Настройки формата                        : BVOP1 / Custom Matrix
Параметр BVOP формата                    : 1
Параметр QPel формата                    : Нет
Параметр GMC формата                     : Без точки перехода
Параметр матрицы формата                 : Выборочная
Идентификатор кодека                     : XVID
Идентификатор кодека/Подсказка           : XviD
Продолжительность                        : 23 м. 42 с.
Битрейт                                  : 1656 Кбит/сек
Ширина                                   : 720 пикселей
Высота                                   : 400 пикселей
Соотношение сторон                       : 16:9
Частота кадров                           : 23,976 (24000/1001) кадра/сек
Цветовое пространство                    : YUV
Субдискретизация насыщенности            : 4:2:0
Битовая глубина                          : 8 бит
Тип развёртки                            : Прогрессивная
Метод сжатия                             : С потерями
Бит/(Пиксели*Кадры)                      : 0.240
Размер потока                            : 281 Мбайт (81%)
Библиотека кодирования                   : XviD 73

Аудио #1
Идентификатор                            : 1
Формат                                   : AC-3
Формат/Информация                        : Audio Coding 3
Коммерческое название                    : Dolby Digital
Идентификатор кодека                     : 2000
Продолжительность                        : 23 м. 40 с.
Вид битрейта                             : Постоянный
Битрейт                                  : 192 Кбит/сек
Каналы                                   : 2 канала
Channel layout                           : L R
Частота                                  : 48,0 КГц
Частота кадров                           : 31,250 кадров/сек (1536 SPF)
Битовая глубина                          : 16 бит
Метод сжатия                             : С потерями
Размер потока                            : 32,5 Мбайт (9%)
Выравнивание                             : Разделение по промежуткам
Продолжительность промежутка             : 42  мс. (1,00 видеокадр)
Время предзагрузки промежутка            : 500  мс.

Аудио #2
Идентификатор                            : 2
Формат                                   : AC-3
Формат/Информация                        : Audio Coding 3
Коммерческое название                    : Dolby Digital
Идентификатор кодека                     : 2000
Продолжительность                        : 23 м. 42 с.
Вид битрейта                             : Постоянный
Битрейт                                  : 192 Кбит/сек
Каналы                                   : 2 канала
Channel layout                           : L R
Частота                                  : 48,0 КГц
Частота кадров                           : 31,250 кадров/сек (1536 SPF)
Битовая глубина                          : 16 бит
Метод сжатия                             : С потерями
Размер потока                            : 32,5 Мбайт (9%)
Выравнивание                             : Разделение по промежуткам
Продолжительность промежутка             : 42  мс. (1,00 видеокадр)
Время предзагрузки промежутка            : 500  мс.



[+] "Список эпизодов"
01. Принцесса Меча и Эльф
02. Примерка и покупка
03. Фестиваль и отвага
04. Убийство и драгоценность
05. Красноволосая и одинокий правитель
06. Подчинение и побег
07. Просьбы и разделение
08. Порочность и Дева
09. Тренировки и зависть
10. Юноша и герой
11. Путешествие к неизведанному
12. Меч Оратории



[+] "Скриншоты"
[center]  
[/center]



[+] "Порядок просмотра:"

#1 DanMachi
#2 DanMachi OVA
#3 DanMachi Sword Oratoria ✔
#4 DanMachi 2 ✔


Релиз Без Рекламы √
[+] Всего файлов в раздаче - 24:
Me4.OraTorII.2017.S01.L.AniLibria.BDRip.Deadmauvlad.Ep.10.avi348.23 MB
Me4.OraTorII.2017.S01.L.AniLibria.BDRip.Deadmauvlad.Ep.02.avi338.64 MB
Me4.OraTorII.2017.S01.L.AniLibria.BDRip.Deadmauvlad.Ep.03.avi348.18 MB
Me4.OraTorII.2017.S01.L.AniLibria.BDRip.Deadmauvlad.Ep.04.avi348.16 MB
Me4.OraTorII.2017.S01.L.AniLibria.BDRip.Deadmauvlad.Ep.05.avi348.22 MB
Me4.OraTorII.2017.S01.L.AniLibria.BDRip.Deadmauvlad.Ep.06.avi348.16 MB
Me4.OraTorII.2017.S01.L.AniLibria.BDRip.Deadmauvlad.Ep.07.avi348.10 MB
Me4.OraTorII.2017.S01.L.AniLibria.BDRip.Deadmauvlad.Ep.08.avi348.15 MB
Me4.OraTorII.2017.S01.L.AniLibria.BDRip.Deadmauvlad.Ep.09.avi327.40 MB
Me4.OraTorII.2017.S01.L.AniLibria.BDRip.Deadmauvlad.Ep.01.avi348.19 MB
Me4.OraTorII.2017.S01.L.AniLibria.BDRip.Deadmauvlad.Ep.11.avi348.20 MB
Me4.OraTorII.2017.S01.L.AniLibria.BDRip.Deadmauvlad.Ep.12.END.avi348.04 MB
RUS SUB [AniLibria]/Me4.OraTorII.2017.S01.L.AniLibria.BDRip.Deadmauvlad.Ep.01.ass34.14 kB
RUS SUB [AniLibria]/Me4.OraTorII.2017.S01.L.AniLibria.BDRip.Deadmauvlad.Ep.02.ass41.88 kB
RUS SUB [AniLibria]/Me4.OraTorII.2017.S01.L.AniLibria.BDRip.Deadmauvlad.Ep.03.ass45.93 kB
RUS SUB [AniLibria]/Me4.OraTorII.2017.S01.L.AniLibria.BDRip.Deadmauvlad.Ep.04.ass43.67 kB
RUS SUB [AniLibria]/Me4.OraTorII.2017.S01.L.AniLibria.BDRip.Deadmauvlad.Ep.05.ass38.61 kB
RUS SUB [AniLibria]/Me4.OraTorII.2017.S01.L.AniLibria.BDRip.Deadmauvlad.Ep.06.ass39.83 kB
RUS SUB [AniLibria]/Me4.OraTorII.2017.S01.L.AniLibria.BDRip.Deadmauvlad.Ep.07.ass48.29 kB
RUS SUB [AniLibria]/Me4.OraTorII.2017.S01.L.AniLibria.BDRip.Deadmauvlad.Ep.08.ass44.62 kB
RUS SUB [AniLibria]/Me4.OraTorII.2017.S01.L.AniLibria.BDRip.Deadmauvlad.Ep.09.ass36.22 kB
RUS SUB [AniLibria]/Me4.OraTorII.2017.S01.L.AniLibria.BDRip.Deadmauvlad.Ep.10.ass42.51 kB
RUS SUB [AniLibria]/Me4.OraTorII.2017.S01.L.AniLibria.BDRip.Deadmauvlad.Ep.11.ass44.23 kB
RUS SUB [AniLibria]/Me4.OraTorII.2017.S01.L.AniLibria.BDRip.Deadmauvlad.Ep.12.ass30.33 kB

Похожие раздачи по запросу - подземелье:
2019-09-06 U В подземелье я пойду, там красавицу найду / Danmachi [S01] (2015) BDRip от Deadmauvlad | L2 | AniLibria 4.40 GB ↑ 0 ↓ 1

Отзывы
Зарегистрируйтесь чтобы добавить комментарий.
Обратная связь
Copyleft ©