↑↓Torrent.by
Поиск
Логин: Регистрация
Пароль: Восстановить пароль
Загрузка...

Я купил папу (1963) SATRip-AVC от New-Team

Скачать ya-kupil-papu-1963-satrip-avc-ot-new-team.torrent
U Магнитная ссылка Размер: 744.24 MB Раздают: 0 Качают: 3 Добавлен: 2019-09-06 11:05:49

Страна: СССР
Производство: Киностудия им. Горького

Жанр:комедия, семейный, детский
Год выпуска: 1963
Продолжительность: 01:16:39

Перевод: Не требуется
Cубтитры: нет
Оригинальная аудиодорожка: русский

Режиссер: Илья Фрэз

В ролях:
Алеша Загорский, Ольга Лысенко, Владимир Трещалов, Светлана Агеева, Марина Гаврилко, Анатолий Касапов, Зинаида Нарышкина, Геннадий Фролов...
Об актёрах подробней

Описание:
Димке пять лет, и у него нет отца. Однажды мальчик решил, что деньги, отложенные на покупку папы, мама просто потратила на мороженое. Он решил сам исправить положение — и отправился в универмаг, в витрине которого однажды видел очень красивого «дядю»…




Исходник: DVB
Качество видео: SATRip-AVC
Формат видео: MKV

Видео: 704->747x360 (2,081:1), 25,000 кадров/сек, H264 ~ 1164 kbps avg, 0.184 bit/pixel
Аудио: 48 kHz, Dolby Digital AC3 2.0, 192 kbps

Раздача от:

[+] MediaInfo

Общее
Полное имя: YA.kupil.papu.1963.SATRip-AVC_[New-team]_by_AVP_Studio.mkv
Формат: Matroska
Версия формата: Version 2
Размер файла: 744 Мбайт
Продолжительность: 1 ч. 16 м.
Общий поток: 1357 Кбит/сек
Дата кодирования: UTC 2019-08-30 14:53:38
Программа кодирования: mkvmerge v6.1.0 ('Old Devil') built on Mar4 2013 09:10:42
Библиотека кодирования: libebml v1.3.0 + libmatroska v1.4.0

Видео
Идентификатор: 1
Формат: AVC
Формат/Информация: Advanced Video Codec
Профиль формата: High@L4.1
Настройки формата: CABAC / 10 Ref Frames
Параметр CABAC формата: Да
Параметр RefFrames формата: 10 кадров
Идентификатор кодека: V_MPEG4/ISO/AVC
Продолжительность: 1 ч. 16 м.
Битрейт: 1164 Кбит/сек
Ширина: 704 пикселя
Высота: 360 пикселей
Соотношение сторон: 2,081
Соотношение сторон в оригинале: 2,080
Режим частоты кадров: Постоянный
Частота кадров: 25,000 кадров/сек
Цветовое пространство: YUV
Субдискретизация насыщенности: 4:2:0
Битовая глубина: 8 бит
Тип развёртки: Прогрессивная
Бит/(Пиксели*Кадры): 0.184
Размер потока: 624 Мбайт (84%)
Библиотека кодирования: x264 core 157 r2932 303c484
Настройки программы: cabac=1 / ref=10 / deblock=1:-2:-1 / analyse=0x3:0x113 / me=umh / subme=10 / psy=1 / psy_rd=1.00:0.00 / mixed_ref=1 / me_range=32 / chroma_me=1 / trellis=2 / 8x8dct=1 / cqm=0 / deadzone=21,11 / fast_pskip=1 / chroma_qp_offset=-2 / threads=6 / lookahead_threads=1 / sliced_threads=0 / nr=0 / decimate=0 / interlaced=0 / bluray_compat=0 / constrained_intra=0 / bframes=8 / b_pyramid=2 / b_adapt=2 / b_bias=0 / direct=3 / weightb=1 / open_gop=0 / weightp=2 / keyint=250 / keyint_min=25 / scenecut=40 / intra_refresh=0 / rc=2pass / mbtree=0 / bitrate=1164 / ratetol=1.0 / qcomp=0.60 / qpmin=0 / qpmax=69 / qpstep=4 / cplxblur=20.0 / qblur=0.5 / ip_ratio=1.40 / pb_ratio=1.30 / aq=1:1.00
Default: Да
Forced: Нет

Аудио
Идентификатор: 2
Формат: AC-3
Формат/Информация: Audio Coding 3
Коммерческое название: Dolby Digital
Идентификатор кодека: A_AC3
Продолжительность: 1 ч. 16 м.
Вид битрейта: Постоянный
Битрейт: 192 Кбит/сек
Каналы: 2 канала
ChannelLayout: L R
Частота: 48,0 КГц
Частота кадров: 31,250 кадров/сек (1536 SPF)
Битовая глубина: 16 бит
Метод сжатия: С потерями
Размер потока: 105 Мбайт (14%)
Default: Да
Forced: Нет



Скриншоты
[+] Всего файлов в раздаче - 1:
YA.kupil.papu.1963.SATRip-AVC_[New-team]_by_AVP_Studio.mkv744.24 MB

Отзывы
Зарегистрируйтесь чтобы добавить комментарий.
Обратная связь
Copyleft ©