↑↓Torrent.by
Поиск
Логин: Регистрация
Пароль: Восстановить пароль
Загрузка...

Тайная жизнь домашних животных 2 / The Secret Life of Pets 2 (2019) UHD BDRemux 2160p от селезень | 4K | HDR | D, P | iTunes

Скачать taynaya-zhizn-domashnih-zhivotnyh-2-the-secret-life-of-pets-2019-uhd-bdremux-2160p-ot-selezen-4k-hdr-d-p-itunes.torrent
U Магнитная ссылка Размер: 38.38 GB Раздают: 72 Качают: 25 Добавлен: 2019-09-07 07:30:54
Тайная жизнь домашних животных 2 / The Secret Life of Pets 2 (2019) UHD BDRemux 2160p от селезень | 4K | HDR | D, P | iTunes

Название: Тайная жизнь домашних животных 2
Оригинальное название: The Secret Life of Pets 2
Год выхода: 2019
Жанр: Мультфильм, комедия, приключения, семейный
Режиссер: Крис Рено, Джонатан дель Валь
В ролях: Пэттон Освальт, Кевин Харт, Харрисон Форд, Эрик Стоунстрит, Дженни Слейт, Тиффани Хэддиш, Лэйк Белл, Дэна Карви, Бобби Мойнахан, Хэннибал Бёресс

О фильме: Почему человек так долго спит утром? Чем вкусно пахнет? Дай мне, дай, дай, дай! Как заставить человека чесать за ушком весь день? Ой, что это? Ааай, опять мой хвост! Где взять еще вкусняшек? О, мячик-мячик-мячик! Узнайте, что действительно беспокоит ваших животных.

Страна: США, Франция, Япония
Студия: Illumination Entertainment, Universal Pictures
Продолжительность: 01:26:06
Перевод(ы):
#1: Дублированный | iTunes
#2: Профессиональный многоголосый | HDRezka Studio

Качество: BDRemux 2160p
Видео: 3840x2160 at 23.976 fps, MPEG-H HEVC HDR Video, 59400 kbps avg
Звук:
Аудио #01: 48 kHz, AC3, 5.1, 384 Kbps | iTunes | RUS |
Аудио #02: 48 kHz, AC3, 2.0, 192 Kbps | HDRezka Studio | RUS |
Аудио #03: 48 kHz, TrueHD, 7.1, 3318 Kbps | Оригинал |  ENG |
Аудио #04: 48 kHz, AC3, 5.1, 448 Kbps | Оригинал |  ENG |
Субтитры: Русские (Full), английские

Релиз:


[+] MI
General
Unique ID                   : 197432716829348841805606027893621589493 (0x9488287B7DED3B198165B8BB685F05F5)
Complete name               : C:VideoThe.Secret.Life.of.Pets.2.2019.BDREMUX.2160p.HDR.seleZen.mkv
Format                      : Matroska
Format version              : Version 4
File size                   : 38.4 GiB
Duration                    : 1 h 26 min
Overall bit rate mode       : Variable
Overall bit rate            : 63.8 Mb/s
Movie name                  : The Secret Life of Pets 2 2019  from селезень
Encoded date                : UTC 2019-09-04 11:56:26
Writing application         : mkvmerge v36.0.0 ('Is That Jazz?') 64-bit
Writing library             : libebml v1.3.9 + libmatroska v1.5.2

Video
ID                          : 1
Format                      : HEVC
Format/Info                 : High Efficiency Video Coding
Format profile              : Main 10@L5.1@High
HDR format                  : SMPTE ST 2094 App 4, Version 1, HDR10+ Profile B compatible
Codec ID                    : V_MPEGH/ISO/HEVC
Duration                    : 1 h 26 min
Bit rate                    : 59.4 Mb/s
Width                       : 3 840 pixels
Height                      : 2 160 pixels
Display aspect ratio        : 16:9
Frame rate mode             : Constant
Frame rate                  : 23.976 (24000/1001) FPS
Color space                 : YUV
Chroma subsampling          : 4:2:0 (Type 2)
Bit depth                   : 10 bits
Bits/(Pixel*Frame)          : 0.299
Stream size                 : 35.7 GiB (93%)
Language                    : English
Default                     : Yes
Forced                      : No
Color range                 : Limited
Color primaries             : BT.2020
Transfer characteristics    : PQ
Matrix coefficients         : BT.2020 non-constant
Mastering display color pri : Display P3
Mastering display luminance : min: 0.0001 cd/m2, max: 1000 cd/m2
Maximum Content Light Level : 1000 cd/m2
Maximum Frame-Average Light : 412 cd/m2

Audio #1
ID                          : 2
Format                      : AC-3
Format/Info                 : Audio Coding 3
Commercial name             : Dolby Digital
Codec ID                    : A_AC3
Duration                    : 1 h 26 min
Bit rate mode               : Constant
Bit rate                    : 384 kb/s
Channel(s)                  : 6 channels
Channel layout              : L R C LFE Ls Rs
Sampling rate               : 48.0 kHz
Frame rate                  : 31.250 FPS (1536 SPF)
Bit depth                   : 16 bits
Compression mode            : Lossy
Stream size                 : 236 MiB (1%)
Title                       : iTunes
Language                    : Russian
Service kind                : Complete Main
Default                     : Yes
Forced                      : Yes

Audio #2
ID                          : 3
Format                      : AC-3
Format/Info                 : Audio Coding 3
Commercial name             : Dolby Digital
Codec ID                    : A_AC3
Duration                    : 1 h 26 min
Bit rate mode               : Constant
Bit rate                    : 192 kb/s
Channel(s)                  : 2 channels
Channel layout              : L R
Sampling rate               : 48.0 kHz
Frame rate                  : 31.250 FPS (1536 SPF)
Bit depth                   : 16 bits
Compression mode            : Lossy
Stream size                 : 118 MiB (0%)
Title                       : MVO [HDRezka Studio]
Language                    : Russian
Service kind                : Complete Main
Default                     : No
Forced                      : No

Audio #3
ID                          : 4
Format                      : MLP FBA 16-ch
Format/Info                 : Meridian Lossless Packing FBA with 16-channel presentation
Commercial name             : Dolby TrueHD with Dolby Atmos
Codec ID                    : A_TRUEHD
Duration                    : 1 h 26 min
Bit rate mode               : Variable
Bit rate                    : 3 318 kb/s
Maximum bit rate            : 4 644 kb/s
Channel(s)                  : 8 channels
Channel layout              : L R C LFE Ls Rs Lb Rb
Sampling rate               : 48.0 kHz
Frame rate                  : 1 200.000 FPS (40 SPF)
Compression mode            : Lossless
Stream size                 : 1.99 GiB (5%)
Title                       : Original
Language                    : English
Default                     : No
Forced                      : No
Number of dynamic objects   : 11
Bed channel count           : 1 channel
Bed channel configuration   : LFE

Audio #4
ID                          : 5
Format                      : AC-3
Format/Info                 : Audio Coding 3
Commercial name             : Dolby Digital
Codec ID                    : A_AC3
Duration                    : 1 h 26 min
Bit rate mode               : Constant
Bit rate                    : 448 kb/s
Channel(s)                  : 6 channels
Channel layout              : L R C LFE Ls Rs
Sampling rate               : 48.0 kHz
Frame rate                  : 31.250 FPS (1536 SPF)
Bit depth                   : 16 bits
Compression mode            : Lossy
Stream size                 : 276 MiB (1%)
Language                    : English
Service kind                : Complete Main
Default                     : No
Forced                      : No

Text #1
ID                          : 6
Format                      : UTF-8
Codec ID                    : S_TEXT/UTF8
Codec ID/Info               : UTF-8 Plain Text
Duration                    : 1 h 25 min
Bit rate                    : 74 b/s
Count of elements           : 1157
Stream size                 : 46.9 KiB (0%)
Title                       : Full
Language                    : Russian
Default                     : No
Forced                      : No

Text #2
ID                          : 7
Format                      : UTF-8
Codec ID                    : S_TEXT/UTF8
Codec ID/Info               : UTF-8 Plain Text
Duration                    : 1 h 25 min
Bit rate                    : 53 b/s
Count of elements           : 1324
Stream size                 : 33.3 KiB (0%)
Title                       : Full
Language                    : English
Default                     : No
Forced                      : No

Menu
00:00:00.000                : :Chapter 01
00:05:35.209                : :Chapter 02
00:10:08.482                : :Chapter 03
00:13:26.972                : :Chapter 04
00:16:40.457                : :Chapter 05
00:19:57.613                : :Chapter 06
00:24:10.740                : :Chapter 07
00:28:16.403                : :Chapter 08
00:30:54.936                : :Chapter 09
00:35:15.780                : :Chapter 10
00:39:56.644                : :Chapter 11
00:45:47.995                : :Chapter 12
00:49:52.489                : :Chapter 13
00:56:55.662                : :Chapter 14
00:58:35.887                : :Chapter 15
01:02:49.599                : :Chapter 16
01:07:17.283                : :Chapter 17
01:12:49.490                : :Chapter 18
01:15:22.476                : :Chapter 19
01:18:10.686                : :Chapter 20



Скриншоты:
[+] Всего файлов в раздаче - 1:
The.Secret.Life.of.Pets.2.2019.BDREMUX.2160p.HDR.seleZen.mkv38.38 GB

Показать еще раздачи по запросу тайная:
2019-09-08 U Тайная жизнь домашних животных 2 / The Secret Life of Pets 2 (2019) BDRip 1080p от ExKinoRay | iTunes, P 7.25 GB ↑ 55 ↓ 16
2019-09-08 U Тайная жизнь домашних животных 2 / The Secret Life of Pets 2 (2019) HDRip от Scarabey | iTunes 1.41 GB ↑ 55 ↓ 12
2019-09-07 U Тайная жизнь домашних животных 2 / The Secret Life of Pets 2 (2019) BDRemux 1080p от селезень | D, P | iTunes 21.94 GB ↑ 29 ↓ 11
2019-09-07 U Тайная жизнь домашних животных 2 / The Secret Life of Pets 2 (2019) HDRip от ExKinoRay | D | iTunes 744.78 MB ↑ 36 ↓ 6
2019-09-07 U Тайная жизнь домашних животных 2 / The Secret Life of Pets 2 (2019) BDRip-HEVC 1080p | iTunes 3.20 GB ↑ 58 ↓ 5
2019-09-07 U Тайная жизнь домашних животных 2 / The Secret Life of Pets 2 (2019) BDRip-AVC от ExKinoRay | iTunes 2.00 GB ↑ 62 ↓ 13
2019-09-05 U Тайная жизнь домашних животных 2 / The Secret Life of Pets 2 (2019) BDRip 720p от селезень | D, P | iTunes 4.64 GB ↑ 33 ↓ 21

Отзывы
Зарегистрируйтесь чтобы добавить комментарий.
Обратная связь
Copyleft ©