↑↓Torrent.by
Поиск
Логин: Регистрация
Пароль: Восстановить пароль
Загрузка...

Тайная жизнь домашних животных 2 / The Secret Life of Pets 2 (2019) BDRip-HEVC 1080p | iTunes

Скачать taynaya-zhizn-domashnih-zhivotnyh-2-the-secret-life-of-pets-2019-bdrip-hevc-1080p-itunes.torrent
U Магнитная ссылка Размер: 3.20 GB Раздают: 58 Качают: 5 Добавлен: 2019-09-07 07:31:24
Тайная жизнь домашних животных 2 / The Secret Life of Pets 2 (2019) BDRip-HEVC 1080p | iTunes

Название: Тайная жизнь домашних животных 2
Оригинальное название: The Secret Life of Pets 2
Год выхода: 2019
Жанр: Мультфильм, комедия, приключения, семейный
Режиссер: Крис Рено, Джонатан дель Валь
В ролях: Пэттон Освальт, Кевин Харт, Харрисон Форд, Эрик Стоунстрит, Дженни Слейт, Тиффани Хэддиш, Лэйк Белл, Дэна Карви, Бобби Мойнахан, Хэннибал Бёресс

О фильме:
Макс уезжает с хозяйкой, мужем и ребёнком в гости на ранчо. Тем временем, в городе у Снежка и Гиджет свои приключения.

 
Страна: США, Франция, Япония
Продолжительность: 01:26:03
Перевод: Дублированный | iTunes

Файл
Кодек: H.265
Качество: BDRip-HEVC 1080p
Видео: HEVC/H.265, 1920x1040, ~4839 kbps, 10bit
Звук: 48 kHz, AC3, 5.1, 384 Kbps


[+] MI
Полное имя                               : J:СборкаТайная жизнь домашних животных 2- The Secret Life of Pets 2 (2019) 1080p BluRay x265 10bit.iTunes.mkv
Формат                                   : Matroska
Версия формата                           : Version 4 / Version 2
Размер файла                             : 3,20 Гбайт
Продолжительность                        : 1 ч. 26 м.
Общий поток                              : 5329 Кбит/сек
Название фильма                          : The Secret Life of Pets 2
Дата кодирования                         : UTC 2019-09-04 16:18:53
Программа кодирования                    : mkvmerge v7.3.0 ('Nouages') 64bit built on Oct 22 2014 18:53:34
Библиотека кодирования                   : libebml v1.3.0 + libmatroska v1.4.1
DURATION                                 : 01:26:02.752000000
NUMBER_OF_FRAMES                         : 161336
NUMBER_OF_BYTES                          : 247812096
_STATISTICS_WRITING_APP                  : mkvmerge v7.3.0 ('Nouages') 64bit built on Oct 22 2014 18:53:34
_STATISTICS_WRITING_DATE_UTC             : 2019-09-04 16:18:53
_STATISTICS_TAGS                         : BPS DURATION NUMBER_OF_FRAMES NUMBER_OF_BYTES

Видео
Идентификатор                            : 1
Формат                                   : HEVC
Формат/Информация                        : High Efficiency Video Coding
Профиль формата                          : Main 10@L4@Main
Идентификатор кодека                     : V_MPEGH/ISO/HEVC
Продолжительность                        : 1 ч. 26 м.
Битрейт                                  : 4839 Кбит/сек
Ширина                                   : 1920 пикселей
Высота                                   : 1040 пикселей
Соотношение сторон                       : 1,85:1
Режим частоты кадров                     : Постоянный
Частота кадров                           : 23,976 кадра/сек
Цветовое пространство                    : YUV
Субдискретизация насыщенности            : 4:2:0
Битовая глубина                          : 10 бит
Бит/(Пиксели*Кадры)                      : 0.101
Размер потока                            : 2,91 Гбайт (91%)
Библиотека кодирования                   : x265 3.0_Au+18-768ab38fd5fd:[Windows][GCC 8.3.0][64 bit] 10bit
Настройки программы                      : cpuid=1111039 / frame-threads=3 / numa-pools=8 / wpp / no-pmode / no-pme / no-psnr / no-ssim / log-level=2 / input-csp=1 / input-res=1920x1040 / interlace=0 / total-frames=123801 / level-idc=0 / high-tier=1 / uhd-bd=0 / ref=4 / no-allow-non-conformance / no-repeat-headers / annexb / no-aud / no-hrd / info / hash=0 / no-temporal-layers / open-gop / min-keyint=23 / keyint=250 / gop-lookahead=0 / bframes=8 / b-adapt=2 / b-pyramid / bframe-bias=0 / rc-lookahead=25 / lookahead-slices=4 / scenecut=40 / radl=0 / no-splice / no-intra-refresh / ctu=64 / min-cu-size=8 / rect / no-amp / max-tu-size=32 / tu-inter-depth=1 / tu-intra-depth=1 / limit-tu=0 / rdoq-level=2 / dynamic-rd=0.00 / no-ssim-rd / signhide / no-tskip / nr-intra=0 / nr-inter=0 / no-constrained-intra / strong-intra-smoothing / max-merge=3 / limit-refs=3 / limit-modes / me=3 / subme=3 / merange=57 / temporal-mvp / weightp / no-weightb / no-analyze-src-pics / deblock=0:0 / no-sao / no-sao-non-deblock / rd=4 / no-early-skip / rskip / no-fast-intra / no-tskip-fast / no-cu-lossless / no-b-intra / no-splitrd-skip / rdpenalty=0 / psy-rd=2.00 / psy-rdoq=1.00 / no-rd-refine / no-lossless / cbqpoffs=0 / crqpoffs=0 / rc=crf / crf=18.0 / qcomp=0.60 / qpstep=4 / stats-write=0 / stats-read=0 / ipratio=1.40 / pbratio=1.30 / aq-mode=3 / aq-strength=1.00 / cutree / zone-count=0 / no-strict-cbr / qg-size=32 / no-rc-grain / qpmax=69 / qpmin=0 / no-const-vbv / sar=0 / overscan=0 / videoformat=5 / range=0 / colorprim=2 / transfer=2 / colormatrix=2 / chromaloc=0 / display-window=0 / max-cll=0,0 / min-luma=0 / max-luma=1023 / log2-max-poc-lsb=8 / vui-timing-info / vui-hrd-info / slices=1 / no-opt-qp-pps / no-opt-ref-list-length-pps / no-multi-pass-opt-rps / scenecut-bias=0.05 / no-opt-cu-delta-qp / aq-motion / no-hdr / no-hdr-opt / no-dhdr10-opt / no-idr-recovery-sei / analysis-reuse-level=5 / scale-factor=0 / refine-intra=0 / refine-inter=0 / refine-mv=0 / refine-ctu-distortion=0 / no-limit-sao / ctu-info=0 / no-lowpass-dct / refine-analysis-type=0 / copy-pic=1 / max-ausize-factor=1.0 / no-dynamic-refine / no-single-sei / no-hevc-aq / no-svt / qp-adaptation-range=1.00
Default                                  : Да
Forced                                   : Нет

Аудио
Идентификатор                            : 2
Формат                                   : AC-3
Формат/Информация                        : Audio Coding 3
Расширение режима                        : CM (complete main)
Параметр Endianness формата              : Big
Идентификатор кодека                     : A_AC3
Продолжительность                        : 1 ч. 26 м.
Вид битрейта                             : Постоянный
Битрейт                                  : 384 Кбит/сек
Каналы                                   : 6 каналов
Расположение каналов                     : Front: L C R, Side: L R, LFE
Частота                                  : 48,0 КГц
Битовая глубина                          : 16 бит
Метод сжатия                             : С потерями
Размер потока                            : 236 Мбайт (7%)
Default                                  : Да
Forced                                   : Нет




Скриншоты:
[+] Всего файлов в раздаче - 1:
Тайная жизнь домашних животных 2- The Secret Life of Pets 2 (2019) 1080p BluRay x265 10bit.iTunes.mkv3.20 GB

Показать еще раздачи по запросу тайная:
2019-09-08 U Тайная жизнь домашних животных 2 / The Secret Life of Pets 2 (2019) BDRip 1080p от ExKinoRay | iTunes, P 7.25 GB ↑ 55 ↓ 16
2019-09-08 U Тайная жизнь домашних животных 2 / The Secret Life of Pets 2 (2019) HDRip от Scarabey | iTunes 1.41 GB ↑ 55 ↓ 12
2019-09-07 U Тайная жизнь домашних животных 2 / The Secret Life of Pets 2 (2019) BDRemux 1080p от селезень | D, P | iTunes 21.94 GB ↑ 29 ↓ 11
2019-09-07 U Тайная жизнь домашних животных 2 / The Secret Life of Pets 2 (2019) HDRip от ExKinoRay | D | iTunes 744.78 MB ↑ 36 ↓ 6
2019-09-07 U Тайная жизнь домашних животных 2 / The Secret Life of Pets 2 (2019) BDRip-AVC от ExKinoRay | iTunes 2.00 GB ↑ 62 ↓ 13
2019-09-07 U Тайная жизнь домашних животных 2 / The Secret Life of Pets 2 (2019) UHD BDRemux 2160p от селезень | 4K | HDR | D, P | iTunes 38.38 GB ↑ 72 ↓ 25
2019-09-05 U Тайная жизнь домашних животных 2 / The Secret Life of Pets 2 (2019) BDRip 720p от селезень | D, P | iTunes 4.64 GB ↑ 33 ↓ 21

Отзывы
Зарегистрируйтесь чтобы добавить комментарий.
Обратная связь
Copyleft ©