↑↓Torrent.by
Поиск
Логин: Регистрация
Пароль: Восстановить пароль
Загрузка...

Жаркое лето / Green Green [S01] (2003) DVDRip от Deadmauvlad | P | Лицензия

Скачать zharkoe-leto-green-s01-2003-dvdrip-ot-deadmauvlad-p-licenziya.torrent
U Магнитная ссылка Размер: 4.49 GB Раздают: 11 Качают: 5 Добавлен: 2019-09-07 17:11:46

Информация о фильме
Название: Жаркое лето
Оригинальное название: Green Green
Год выхода: 2003
Жанр: комедия, романтика, школа, этти
Режиссер: Мацумото Тисаку, Юдзи Муто
В ролях: Эрико Фудзимаки, Сара Накаяма, Брайс Папенбрук, Синди Робинсон, Кристен Рутерфорд, Джейн Алан, Филис Семплер, Питер Дойл, Сэнди Фокс, Грант Джордж

О фильме:
Давным-давно один мальчик и одна девочка полюбили друг друга, однако в то время их любовь оказалась запретной, и они не смогли быть вместе. Тогда они пообещали друг другу встретиться вновь, в следующей жизни, и тогда уже не расставаться.
Летняя школа для мальчиков «Колокольный звон» находится в живописном и отдалённом районе, окруженная горами и лесами. И так бы и проходила там размеренная жизнь Юсукэ Такадзаки, если бы руководство школы не решилось на смелый эксперимент - ввести совместное обучение.
Девушки ворвались в размеренную жизнь школы и разрушили её! Ведь на дворе стоит жаркое лето - самое время для любви, искренних чувств, переживаний и просто отдыха! А учёба? А учёба может и подождать немного! И это лето принесет множество фантастических сюрпризов ученикам и ученицам школы «Колокольный звон».



Страна: Япония
Студия: Studio Matrix
Продолжительность: 12х~ 00:24:00
Перевод: Профессиональный многоголосый закадровый - MC Entertainment (Лицензия)

Файл
Кодек: XviD
Качество: DVDRip {Исходник DVD5 Japan}
Видео: 720x528 (4:3), 23.976 fps, 1474 Кбит/сек (0.162 bit/pixel)
Звук:
Аудио #1: AC-3, 48,0 КГц, 6 ch, 384 Кбит/сек, CBR | | Озвучка от MC Entertainment]
Аудио #2: AC-3, 48,0 КГц, 6 ch, 384 Кбит/сек, CBR | | Оригинал
Субтитры: русские субтитры - MC Entertainment

[+] MediaInfo
Общее
Полное имя : Жаркое.Лето.2003.S01.DVDRip.DeadmauvladЖаркое.Лето.2003.S01.DVDRip.Deadmauvlad.Ep.01.avi
Формат : AVI
Формат/Информация : Audio Video Interleave
Размер файла : 386 Мбайт
Продолжительность : 23 м. 54 с.
Общий поток : 2256 Кбит/сек
Название фильма : Жаркое.Лето.2003.S01.DVDRip.Deadmauvlad
Режиссёр : Encoder by Deadmauvlad
Жанр : комедия, романтика, этти
Программа кодирования : VirtualDubMod 1.5.10.3 | www.virtualdub-fr.org || (build 2550/release)
Библиотека кодирования : VirtualDubMod build 2550/release
Формат оригинала/Имя : Аниме
Авторское право : Encoder by Deadmauvlad
Примечание : Encoder by Deadmauvlad

Видео
Идентификатор : 0
Формат : MPEG-4 Visual
Профиль формата : Advanced Simple@L5
Настройки формата : BVOP1 / Custom Matrix
Параметр BVOP формата : 1
Параметр QPel формата : Нет
Параметр GMC формата : Без точки перехода
Параметр матрицы формата : Выборочная
Идентификатор кодека : XVID
Идентификатор кодека/Подсказка : XviD
Продолжительность : 23 м. 54 с.
Битрейт : 1474 Кбит/сек
Ширина : 720 пикселей
Высота : 528 пикселей
Соотношение сторон : 4:3
Частота кадров : 23,976 (24000/1001) кадра/сек
Цветовое пространство : YUV
Субдискретизация насыщенности : 4:2:0
Битовая глубина : 8 бит
Тип развёртки : Прогрессивная
Метод сжатия : С потерями
Бит/(Пиксели*Кадры) : 0.162
Размер потока : 252 Мбайт (65%)
Библиотека кодирования : XviD 73

Аудио #1
Идентификатор : 1
Формат : AC-3
Формат/Информация : Audio Coding 3
Коммерческое название : Dolby Digital
Идентификатор кодека : 2000
Продолжительность : 23 м. 54 с.
Вид битрейта : Постоянный
Битрейт : 384 Кбит/сек
Каналы : 6 каналов
Channel layout : L R C LFE Ls Rs
Частота : 48,0 КГц
Частота кадров : 31,250 кадров/сек (1536 SPF)
Битовая глубина : 16 бит
Метод сжатия : С потерями
Размер потока : 65,7 Мбайт (17%)
Выравнивание : Разделение по промежуткам
Продолжительность промежутка : 42 мс. (1,00 видеокадр)
Время предзагрузки промежутка : 500 мс.

Аудио #2
Идентификатор : 2
Формат : AC-3
Формат/Информация : Audio Coding 3
Коммерческое название : Dolby Digital
Идентификатор кодека : 2000
Продолжительность : 23 м. 54 с.
Вид битрейта : Постоянный
Битрейт : 384 Кбит/сек
Каналы : 6 каналов
Channel layout : L R C LFE Ls Rs
Частота : 48,0 КГц
Частота кадров : 31,250 кадров/сек (1536 SPF)
Битовая глубина : 16 бит
Метод сжатия : С потерями
Размер потока : 65,7 Мбайт (17%)
Выравнивание : Разделение по промежуткам
Продолжительность промежутка : 42 мс. (1,00 видеокадр)
Время предзагрузки промежутка : 500 мс.


[+] Список Серий
1. Hearts Pounding Deep in the Mountains!
2. A Tumble in the Open-Air Bath
3. Whoops-a-daisy In the Forest!
4. Commotion in the Girls` Dorm
5. Instant Sleep in the Nurse`s Office!
6. A Steamy Time in the P.E. Storage Room
7. Splish-splash by the Pool
8. Morning Bath Free-for-all
9. Hightailing It Out of the Test of Courage
10. Pandemonium in the Library
11. Overwhelmed by Destiny
12. Farewell, Kanenone Academy!

13. Жаркое лето - Эролюция / Green Green Thirteen: Erolutions ** Запрещена (см. спойлер Важная Информация)


[+] Важная Информация
1. Экранизация одноимённой визуальной новеллы.

2. 13 серия является OVA которая в свою очередь содержит сцены хентая, из-за чего запрещена к раздаче на трекере. Желающие могут найти её на других ресурсах. Озвучки MC Entertainment для неё нет.

3. В данной раздаче нет запрещенного контента (в т.ч хентая) основной сериал классифицируется как этти (хоть и поджанр хентая но в отличие от хентая этти не показывает сексуальные отношения напрямую, демонстрируя, в зависимости от возраста целевой аудитории, различные по степени откровенности эротические сцены с намёком на такие отношения. Основным творческим приёмом в этти является фансервис)


[+] Скриншоты


Релиз / Автор рипов by Deadmauvlad
[+] Всего файлов в раздаче - 24:
Жаркое.Лето.2003.S01.DVDRip.Deadmauvlad.Ep.01.avi385.85 MB
Жаркое.Лето.2003.S01.DVDRip.Deadmauvlad.Ep.02.avi416.94 MB
Жаркое.Лето.2003.S01.DVDRip.Deadmauvlad.Ep.03.avi412.11 MB
Жаркое.Лето.2003.S01.DVDRip.Deadmauvlad.Ep.04.avi378.21 MB
Жаркое.Лето.2003.S01.DVDRip.Deadmauvlad.Ep.05.avi386.93 MB
Жаркое.Лето.2003.S01.DVDRip.Deadmauvlad.Ep.06.avi403.39 MB
Жаркое.Лето.2003.S01.DVDRip.Deadmauvlad.Ep.07.avi385.20 MB
Жаркое.Лето.2003.S01.DVDRip.Deadmauvlad.Ep.08.avi379.58 MB
Жаркое.Лето.2003.S01.DVDRip.Deadmauvlad.Ep.09.avi371.80 MB
Жаркое.Лето.2003.S01.DVDRip.Deadmauvlad.Ep.12.avi384.58 MB
Жаркое.Лето.2003.S01.DVDRip.Deadmauvlad.Ep.11.avi329.67 MB
Жаркое.Лето.2003.S01.DVDRip.Deadmauvlad.Ep.10.avi363.06 MB
RUS Subtitles/Жаркое.Лето.2003.S01.DVDRip.Deadmauvlad.Ep.01.ass29.40 kB
RUS Subtitles/Жаркое.Лето.2003.S01.DVDRip.Deadmauvlad.Ep.02.ass25.37 kB
RUS Subtitles/Жаркое.Лето.2003.S01.DVDRip.Deadmauvlad.Ep.03.ass22.39 kB
RUS Subtitles/Жаркое.Лето.2003.S01.DVDRip.Deadmauvlad.Ep.04.ass21.95 kB
RUS Subtitles/Жаркое.Лето.2003.S01.DVDRip.Deadmauvlad.Ep.05.ass28.54 kB
RUS Subtitles/Жаркое.Лето.2003.S01.DVDRip.Deadmauvlad.Ep.06.ass32.14 kB
RUS Subtitles/Жаркое.Лето.2003.S01.DVDRip.Deadmauvlad.Ep.07.ass33.00 kB
RUS Subtitles/Жаркое.Лето.2003.S01.DVDRip.Deadmauvlad.Ep.08.ass25.25 kB
RUS Subtitles/Жаркое.Лето.2003.S01.DVDRip.Deadmauvlad.Ep.09.ass31.33 kB
RUS Subtitles/Жаркое.Лето.2003.S01.DVDRip.Deadmauvlad.Ep.10.ass35.83 kB
RUS Subtitles/Жаркое.Лето.2003.S01.DVDRip.Deadmauvlad.Ep.11.ass32.60 kB
RUS Subtitles/Жаркое.Лето.2003.S01.DVDRip.Deadmauvlad.Ep.12.ass31.86 kB

Отзывы
Зарегистрируйтесь чтобы добавить комментарий.
Обратная связь
Copyleft ©