↑↓Torrent.by
Поиск
Логин: Регистрация
Пароль: Восстановить пароль
Загрузка...

Королевский корги / The Queen's Corgi (2019) BDRip-AVC от ExKinoRay | iTunes

Скачать korolevskiy-korgi-the-queen-s-corgi-2019-bdrip-avc-ot-exkinoray-itunes.torrent
U Магнитная ссылка Размер: 744.06 MB Раздают: 10 Качают: 0 Добавлен: 2019-09-08 07:34:55

Информация о фильме
Название: Королевский корги
Оригинальное название: The Queen's Corgi
Год выхода: 2019
Жанр: Мультфильм, приключения, семейный, детский, полнометражный
Режиссер: Винсент Кестелут, Бен Стассен
В ролях: Джек Уайтхолл, Джули Уолтерс, Том Кортни, Джон Калшоу, Ямал Фахим, Кулвиндер Гир, Сара Хэдлэнд, Тимоти Кристиан Джэнсен, Мэтт Лукас, Колин Макфарлэйн

О фильме:
В центре сюжета мультфильма находится корги по имени Рекс. Его жизнь легка и беззаботна, ведь он любимец самой королевы Елизаветы II. Однако однажды ему пришлось покинуть Букингемский дворец и оказаться на улицах Лондона. Здесь жизнь собак текла иначе. Ежедневно им приходится сталкиваться со смертельными опасностями. Разнеженному Рексу придется не сладко, но он не сдастся так просто и пустится в полное приключений путешествие, чтобы вернуться обратно во дворец...



Страна: Бельгия
Студия: Belga Productions, nWave Pictures
Продолжительность: 01:25:17
Перевод: Дублированный | iTunes

Файл
Формат: MKV
Качество: BDRip-AVC (BDRemux 1080p)
Видео: MPEG-4 AVC, 768x432, - 1145 Кбит/с
Аудио: AAC-HE, 2 ch, - 76 Кбит/с
Субтитры: Русские (Full), английские

[+] MI
Общее
Уникальный идентификатор : 282530628183065411210685593618865306998 (0xD48D6B719E53C052ECA49CA804A5BD76)
Полное имя : D:MOVIESThe.Queens.Corgi.2019.BDRip-AVC.ExKinoRay.mkv
Формат : Matroska
Версия формата : Version 4 / Version 2
Размер файла : 744 Мбайт
Продолжительность : 1 ч. 25 м.
Общий поток : 1220 Кбит/сек
Дата кодирования : UTC 2019-09-07 13:49:50
Программа кодирования : mkvmerge v35.0.0 ('All The Love In The World') 64-bit
Библиотека кодирования : libebml v1.3.9 + libmatroska v1.5.2

Видео
Идентификатор : 1
Формат : AVC
Формат/Информация : Advanced Video Codec
Профиль формата : High@L4.1
Параметр CABAC формата : Да
Параметр RefFrames формата : 12 кадров
Идентификатор кодека : V_MPEG4/ISO/AVC
Продолжительность : 1 ч. 25 м.
Битрейт : 1145 Кбит/сек
Ширина : 768 пикселей
Высота : 432 пикселя
Соотношение сторон : 16:9
Режим частоты кадров : Постоянный
Частота кадров : 24,000 кадра/сек
Цветовое пространство : YUV
Субдискретизация насыщенности : 4:2:0
Битовая глубина : 8 бит
Тип развёртки : Прогрессивная
Бит/(Пиксели*Кадры) : 0.144
Размер потока : 697 Мбайт (94%)
Библиотека кодирования : x264 core 152 r2851kMod ba24899
Настройки программы : cabac=1 / ref=12 / deblock=1:-2:-2 / analyse=0x3:0x133 / me=umh / subme=10 / psy=1 / fade_compensate=0.00 / psy_rd=1.00:0.08 / mixed_ref=1 / me_range=32 / chroma_me=1 / trellis=2 / 8x8dct=1 / cqm=0 / deadzone=21,11 / fast_pskip=0 / chroma_qp_offset=-3 / threads=6 / lookahead_threads=1 / sliced_threads=0 / nr=0 / decimate=0 / interlaced=0 / bluray_compat=0 / constrained_intra=0 / bframes=12 / b_pyramid=2 / b_adapt=2 / b_bias=0 / direct=3 / weightb=1 / open_gop=0 / weightp=2 / keyint=240 / keyint_min=23 / scenecut=40 / intra_refresh=0 / rc_lookahead=40 / rc=2pass / mbtree=1 / bitrate=1145 / ratetol=1.0 / qcomp=0.60 / qpmin=0 / qpmax=69 / qpstep=4 / cplxblur=20.0 / qblur=0.5 / ip_ratio=1.40 / aq=3:1.00
Default : Да
Forced : Нет

Аудио
Идентификатор : 2
Формат : AAC
Формат/Информация : Advanced Audio Codec
Профиль формата : HE-AAC / LC
Идентификатор кодека : A_AAC
Продолжительность : 1 ч. 25 м.
Битрейт : 76,0 Кбит/сек
Каналы : 2 канала
Расположение каналов : Front: L R
Частота : 48,0 КГц / 24,0 КГц
Частота кадров : 23,438 кадра/сек (1024 SPF)
Метод сжатия : С потерями
Задержка видео : 31 мс.
Размер потока : 46,3 Мбайт (6%)
Default : Да
Forced : Нет

Текст #1
Идентификатор : 3
Формат : UTF-8
Идентификатор кодека : S_TEXT/UTF8
Идентификатор кодека/Информация : UTF-8 Plain Text
Продолжительность : 1 ч. 20 м.
Битрейт : 90 бит/сек
ElementCount : 953
Размер потока : 53,4 Кбайт (0%)
Заголовок : Full
Язык : Russian
Default : Нет
Forced : Нет

Текст #2
Идентификатор : 4
Формат : UTF-8
Идентификатор кодека : S_TEXT/UTF8
Идентификатор кодека/Информация : UTF-8 Plain Text
Продолжительность : 1 ч. 18 м.
Битрейт : 56 бит/сек
ElementCount : 999
Размер потока : 32,6 Кбайт (0%)
Заголовок : Full
Язык : English
Default : Нет
Forced : Нет

Меню
00:00:00.000 : en:Chapter 01
00:07:42.333 : en:Chapter 02
00:14:50.708 : en:Chapter 03
00:22:13.375 : en:Chapter 04
00:29:44.458 : en:Chapter 05
00:35:05.458 : en:Chapter 06
00:40:40.000 : en:Chapter 07
00:48:05.000 : en:Chapter 08
00:55:05.667 : en:Chapter 09
01:03:00.542 : en:Chapter 10
01:10:06.083 : en:Chapter 11
01:16:11.792 : en:Chapter 12


[+] Скриншоты




[+] Всего файлов в раздаче - 1:
The.Queens.Corgi.2019.BDRip-AVC.ExKinoRay.mkv744.06 MB

Показать еще раздачи по запросу королевский:
2019-09-04 U Неизведанные воды: Королевский порт / Uncharted Tides: Port Royal (2019) PC 736.32 MB ↑ 77 ↓ 9
2019-08-10 U Королевский корги / The Queen's Corgi (2019) BDRip-AVC от ExKinoRay | iTunes 1.86 GB ↑ 143 ↓ 22
2019-08-08 U Королевский корги / The Queen's Corgi (2019) BDRemux 1080p от селезень | iTunes 19.21 GB ↑ 31 ↓ 9
2019-08-08 U Королевский корги / The Queen's Corgi (2019) BDRip-HEVC 1080p | iTunes 5.37 GB ↑ 43 ↓ 11
2019-08-07 U Королевский корги / The Queen's Corgi (2019) BDRip 1080p от селезень | iTunes 7.90 GB ↑ 316 ↓ 192
2019-08-07 U Королевский корги / The Queen's Corgi (2019) BDRip от MegaPeer | iTunes 1.42 GB ↑ 758 ↓ 235
2019-08-07 U Королевский корги / The Queen's Corgi (2019) BDRip 720p от селезень | iTunes 3.83 GB ↑ 132 ↓ 52

Отзывы
Зарегистрируйтесь чтобы добавить комментарий.
Обратная связь
Copyleft ©