↑↓torrent.by
Поиск
Логин: Регистрация
Пароль: Восстановить пароль

Девять Семь Семь / 977 (2006) WEBRip 720p

Скачать devyat-sem-977-2006-webrip-720p.torrent
U Магнитная ссылка Размер: 2.21 GB Раздают: 18 Качают: 11 Добавлен: 2021-09-13 09:04:59
Девять Семь Семь / 977 (2006) WEBRip 720p

Название: Девять Семь Семь (977)
Год выхода: 2006
Жанр:  Драма, фантастика
Режиссер: Николай Хомерики
В ролях: Федор Лавров, Клавдия Коршунова, Екатерина Голубева, Павел Любимцев, Алиса Хазанова, Андрей Казаков, Игорь Овчинников, Леос Каракс, Анна Ардова, Дарья Барская

О фильме:
977 — кодовое число, связанное с попыткой «проверить алгеброй гармонию», найти математические закономерности в эмоциональной и духовной сфере человека.
Герои фильма — добровольные участники эксперимента — проходят не только научные обследования, но и ряд вполне житейских испытаний дружбой, любовью, влечением, завистью и «сильнейшим из аффектов» — любопытством. В итоге, научный опыт превращается в человеческий, результат — непредсказуем…

Страна: Россия
Студия: Метроном Фильм, Пигмалион Продакшн, Студия Телекино
Продолжительность: 01:25:50
Перевод: Русский
Субтитры: Отсутствуют

Файл
Качество: WEBRip 720p
Видео: AVC/H.264, 1280x720 (16:9), ~3493 Kbps
Аудио: AAC, 2 ch, 192 Kbps - русский


[+] M/I
Общее
Уникальный идентификатор                 : 8657153795495455035297916833302978382 (0x6834EA2E043B2EFF32589CFA5AE1F4E)
Полное имя                               : G:Девять семь семь (2006).by.Alexandr.mkv
Формат                                   : Matroska
Версия формата                           : Version 4
Размер файла                             : 2,21 Гбайт
Продолжительность                        : 1 ч. 25 м.
Общий поток                              : 3 685 Кбит/сек
Название фильма                          : Девять семь семь.2006.by.Alexandr
Дата кодирования                         : UTC 2021-09-12 13:56:15
Программа кодирования                    : mkvmerge v26.0.0 ('In The Game') 64-bit
Библиотека кодирования                   : libebml v1.3.6 + libmatroska v1.4.9

Видео
Идентификатор                            : 1
Формат                                   : AVC
Формат/Информация                        : Advanced Video Codec
Профиль формата                          : High@L4.1
Настройки формата                        : CABAC / 5 Ref Frames
Параметр CABAC формата                   : Да
Параметр RefFrames формата               : 5 кадров
Идентификатор кодека                     : V_MPEG4/ISO/AVC
Продолжительность                        : 1 ч. 25 м.
Битрейт                                  : 3 493 Кбит/сек
Ширина                                   : 1 280 пикселей
Высота                                   : 720 пикселей
Соотношение сторон                       : 16:9
Режим частоты кадров                     : Постоянный
Частота кадров                           : 25,000 кадров/сек
Цветовое пространство                    : YUV
Субдискретизация насыщенности            : 4:2:0
Битовая глубина                          : 8 бит
Тип развёртки                            : Прогрессивная
Бит/(Пиксели*Кадры)                      : 0.152
Размер потока                            : 2,09 Гбайт (95%)
Default                                  : Да
Forced                                   : Нет
Цветовой диапазон                        : Limited
Основные цвета                           : BT.709
Характеристики трансфера                 : BT.709
Коэффициенты матрицы                     : BT.709

Аудио
Идентификатор                            : 2
Формат                                   : AAC LC
Формат/Информация                        : Advanced Audio Codec Low Complexity
Идентификатор кодека                     : A_AAC-2
Продолжительность                        : 1 ч. 25 м.
Битрейт                                  : 192 Кбит/сек
Каналы                                   : 2 канала
Channel layout                           : L R
Частота                                  : 48,0 КГц
Частота кадров                           : 46,875 кадров/сек (1024 SPF)
Метод сжатия                             : С потерями
Размер потока                            : 116 Мбайт (5%)
Default                                  : Да
Forced                                   : Нет



Скриншоты:
[+] Всего файлов в раздаче - 1:
Девять семь семь (2006).mkv2.21 GB

Показать еще раздачи по запросу девять:
2021-09-12 U Девять совсем незнакомых людей / Девять незнакомцев / Nine Perfect Strangers [01x01-06 из 08] (2021) WEB-DLRip | LostFilm 3.11 GB ↑ 18 ↓ 9
2021-09-12 U Девять совсем незнакомых людей / Девять незнакомцев / Nine Perfect Strangers [01x01-06 из 08] (2021) WEB-DL 1080p | LostFilm 10.61 GB ↑ 13 ↓ 21
2021-09-09 U Девять совсем незнакомых людей / Девять незнакомцев / Nine Perfect Strangers [01x01-06 из 08] (2021) WEB-DL 1080p | HDrezka Studio 10.73 GB ↑ 28 ↓ 71
2021-09-09 U Девять совсем незнакомых людей / Девять незнакомцев / Nine Perfect Strangers [01x01-06 из 08] (2021) WEBRip от Kerob | L2 3.88 GB ↑ 40 ↓ 50
2021-09-02 U Девять совсем незнакомых людей / Девять незнакомцев / Nine Perfect Strangers [01x01-05 из 08] (2021) WEB-DLRip-AVC | HDrezka Studio 3.58 GB ↑ 11 ↓ 23
2021-09-02 U Девять совсем незнакомых людей / Девять незнакомцев / Nine Perfect Strangers [01x01-05 из 08] (2021) WEB-DL 1080p | HDrezka Studio 8.64 GB ↑ 64 ↓ 121
2021-09-02 U Девять совсем незнакомых людей / Девять незнакомцев / Nine Perfect Strangers [01x01-05 из 08] (2021) WEBRip 720p от Kerob | L2 6.15 GB ↑ 44 ↓ 30

Отзывы
Зарегистрируйтесь чтобы добавить комментарий.
Загрузите программу
  byTorrent
Обратная связь
Copyleft ©