↑↓Torrent.by
Поиск
Логин: Регистрация
Пароль: Восстановить пароль
Загрузка...

Тайная жизнь домашних животных 2 / The Secret Life of Pets 2 (2019) BDRip 1080p от ExKinoRay | iTunes, P

Скачать taynaya-zhizn-domashnih-zhivotnyh-2-the-secret-life-of-pets-2019-bdrip-1080p-ot-exkinoray-itunes-p.torrent
U Магнитная ссылка Размер: 7.25 GB Раздают: 56 Качают: 16 Добавлен: 2019-09-08 08:07:22
Тайная жизнь домашних животных 2 / The Secret Life of Pets 2 (2019) BDRip 1080p от ExKinoRay | iTunes, P

Название: Тайная жизнь домашних животных 2
Оригинальное название: The Secret Life of Pets 2
Год выхода: 2019
Жанр: Мультфильм, комедия, приключения, семейный
Режиссер: Крис Рено, Джонатан дель Валь
В ролях: Пэттон Освальт, Кевин Харт, Харрисон Форд, Эрик Стоунстрит, Дженни Слейт, Тиффани Хэддиш, Лэйк Белл, Дэна Карви, Бобби Мойнахан, Хэннибал Бёресс

О фильме:
Почему человек так долго спит утром? Чем вкусно пахнет? Дай мне, дай, дай, дай! Как заставить человека чесать за ушком весь день? Ой, что это? Ааай, опять мой хвост! Где взять еще вкусняшек? О, мячик-мячик-мячик! Узнайте, что действительно беспокоит ваших животных.

Страна: США
Студия: Illumination Entertainment, Universal Pictures
Продолжительность: 01:26:04
Перевод: Дублированный, многоголосый

Файл
Качество: BDRip 1080p
Видео: MPEG-4 AVC, 9972 Кбит/с, 1920x1040, 23.976 Кадр/с
Звук:
Aудио#1: Russian: 48 kHz, AC3, 3/2 (L,C,R,l,r) + LFE ch,   ~384.00 kbps avg |Дубляж, iTunes|
Aудио#2: Russian: 48 kHz, AC3,   2 (L,R) ch,                   ~192.00 kbps avg |Многоголосый, HDRezka Studio|
Aудио#3: English: 48 kHz, DTS, 3/2 (L,C,R,l,r) + LFE ch, ~1509.00 kbps avg
Субтитры: Russian (Forced, Full-length), English (Full-length, SDH)

Релиз:


[+] Log/MediaInfo
x264 [info]: frame I:988   Avg QP:13.95  size:275116
x264 [info]: frame P:35108 Avg QP:15.87  size: 94813
x264 [info]: frame B:87705 Avg QP:17.19  size: 32338

Формат                                   : Matroska
Версия формата                           : Version 4
Размер файла                             : 7,25 Гбайт
Продолжительность                        : 1 ч. 26 м.
Общий поток                              : 12,1 Мбит/сек
Название фильма                          : The.Secret.Life.of.Pets.2.2019.x264.BDRip.1080p.Rus.Eng.ExKinoRay
Дата кодирования                         : UTC 2019-09-07 07:50:30
Программа кодирования                    : mkvmerge v7.9.0 ('Birds') 64bit
Библиотека кодирования                   : libebml v1.3.1 + libmatroska v1.4.2

Видео
Идентификатор                            : 1
Формат                                   : AVC
Формат/Информация                        : Advanced Video Codec
Профиль формата                          : High@L4.1
Настройки формата                        : CABAC / 4 Ref Frames
Параметр CABAC формата                   : Да
Параметр RefFrames формата               : 4 кадра
Идентификатор кодека                     : V_MPEG4/ISO/AVC
Продолжительность                        : 1 ч. 26 м.
Битрейт                                  : 9972 Кбит/сек
Ширина                                   : 1920 пикселей
Высота                                   : 1040 пикселей
Соотношение сторон                       : 1,85:1
Режим частоты кадров                     : Постоянный
Частота кадров                           : 23,976 кадра/сек
Цветовое пространство                    : YUV
Субдискретизация насыщенности            : 4:2:0
Битовая глубина                          : 8 бит
Тип развёртки                            : Прогрессивная
Бит/(Пиксели*Кадры)                      : 0.208
Размер потока                            : 5,99 Гбайт (83%)
Заголовок                                : The.Secret.Life.of.Pets.2.2019.x264.BDRip.1080p.Rus.Eng.ExKinoRay
Библиотека кодирования                   : x264 core 157 r2945 72db437
Настройки программы                      : cabac=1 / ref=4 / deblock=1:-2:-2 / analyse=0x3:0x113 / me=umh / subme=10 / psy=1 / psy_rd=1.00:0.00 / mixed_ref=1 / me_range=32 / chroma_me=1 / trellis=2 / 8x8dct=1 / cqm=0 / deadzone=21,11 / fast_pskip=0 / chroma_qp_offset=-2 / threads=6 / lookahead_threads=1 / sliced_threads=0 / nr=0 / decimate=0 / interlaced=0 / bluray_compat=0 / constrained_intra=0 / bframes=10 / b_pyramid=2 / b_adapt=2 / b_bias=0 / direct=3 / weightb=1 / open_gop=0 / weightp=1 / keyint=240 / keyint_min=23 / scenecut=40 / intra_refresh=0 / rc_lookahead=75 / rc=crf / mbtree=0 / crf=16.5 / qcomp=0.60 / qpmin=0 / qpmax=69 / qpstep=4 / vbv_maxrate=50000 / vbv_bufsize=62500 / crf_max=0.0 / nal_hrd=none / filler=0 / ip_ratio=1.30 / pb_ratio=1.20 / aq=3:0.70 / zones=0,588,q=26/112448,113833,q=12/113834,113870,q=28/115160,123800,q=26
Язык                                     : English
Default                                  : Да
Forced                                   : Нет

Аудио #1
Идентификатор                            : 2
Формат                                   : AC-3
Формат/Информация                        : Audio Coding 3
Коммерческое название                    : Dolby Digital
Идентификатор кодека                     : A_AC3
Продолжительность                        : 1 ч. 26 м.
Вид битрейта                             : Постоянный
Битрейт                                  : 384 Кбит/сек
Каналы                                   : 6 каналов
Channel layout                           : L R C LFE Ls Rs
Частота                                  : 48,0 КГц
Частота кадров                           : 31,250 кадров/сек (1536 SPF)
Битовая глубина                          : 16 бит
Метод сжатия                             : С потерями
Размер потока                            : 236 Мбайт (3%)
Заголовок                                : Дублированный (iTunes)
Язык                                     : Russian
Default                                  : Да
Forced                                   : Нет

Аудио #2
Идентификатор                            : 3
Формат                                   : AC-3
Формат/Информация                        : Audio Coding 3
Коммерческое название                    : Dolby Digital
Идентификатор кодека                     : A_AC3
Продолжительность                        : 1 ч. 26 м.
Вид битрейта                             : Постоянный
Битрейт                                  : 192 Кбит/сек
Каналы                                   : 2 канала
Channel layout                           : L R
Частота                                  : 48,0 КГц
Частота кадров                           : 31,250 кадров/сек (1536 SPF)
Битовая глубина                          : 16 бит
Метод сжатия                             : С потерями
Размер потока                            : 118 Мбайт (2%)
Заголовок                                : Многоголосый (HDRezka Studio)
Язык                                     : Russian
Default                                  : Нет
Forced                                   : Нет

Аудио #3
Идентификатор                            : 4
Формат                                   : DTS
Формат/Информация                        : Digital Theater Systems
Идентификатор кодека                     : A_DTS
Продолжительность                        : 1 ч. 26 м.
Вид битрейта                             : Постоянный
Битрейт                                  : 1509 Кбит/сек
Каналы                                   : 6 каналов
Channel layout                           : C L R Ls Rs LFE
Частота                                  : 48,0 КГц
Частота кадров                           : 93,750 кадра/сек (512 SPF)
Битовая глубина                          : 24 бит
Метод сжатия                             : С потерями
Размер потока                            : 929 Мбайт (13%)
Заголовок                                : DTS Audio 5.1 ch 1509 Kbps
Язык                                     : English
Default                                  : Нет
Forced                                   : Нет

Текст #1
Идентификатор                            : 5
Формат                                   : UTF-8
Идентификатор кодека                     : S_TEXT/UTF8
Идентификатор кодека/Информация          : UTF-8 Plain Text
Продолжительность                        : 3 с. 542 мс.
Битрейт                                  : 74 бит/сек
ElementCount                             : 1
Размер потока                            : 33,0 байт (0%)
Заголовок                                : Forced
Язык                                     : Russian
Default                                  : Нет
Forced                                   : Нет

Текст #2
Идентификатор                            : 6
Формат                                   : UTF-8
Идентификатор кодека                     : S_TEXT/UTF8
Идентификатор кодека/Информация          : UTF-8 Plain Text
Продолжительность                        : 1 ч. 18 м.
Битрейт                                  : 81 бит/сек
ElementCount                             : 1153
Размер потока                            : 46,7 Кбайт (0%)
Заголовок                                : Full-length
Язык                                     : Russian
Default                                  : Нет
Forced                                   : Нет

Текст #3
Идентификатор                            : 7
Формат                                   : UTF-8
Идентификатор кодека                     : S_TEXT/UTF8
Идентификатор кодека/Информация          : UTF-8 Plain Text
Продолжительность                        : 1 ч. 25 м.
Битрейт                                  : 53 бит/сек
ElementCount                             : 1324
Размер потока                            : 33,3 Кбайт (0%)
Заголовок                                : Full-length
Язык                                     : English
Default                                  : Нет
Forced                                   : Нет

Текст #4
Идентификатор                            : 8
Формат                                   : UTF-8
Идентификатор кодека                     : S_TEXT/UTF8
Идентификатор кодека/Информация          : UTF-8 Plain Text
Продолжительность                        : 1 ч. 25 м.
Битрейт                                  : 77 бит/сек
ElementCount                             : 1924
Размер потока                            : 48,5 Кбайт (0%)
Заголовок                                : SDH
Язык                                     : English
Default                                  : Нет
Forced                                   : Нет

Меню
00:00:00.000                             : en:Chapter 01
00:05:34.542                             : en:Chapter 02
00:10:07.815                             : en:Chapter 03
00:13:26.305                             : en:Chapter 04
00:16:39.790                             : en:Chapter 05
00:19:56.945                             : en:Chapter 06
00:24:10.073                             : en:Chapter 07
00:28:15.735                             : en:Chapter 08
00:30:54.269                             : en:Chapter 09
00:35:15.113                             : en:Chapter 10
00:39:55.976                             : en:Chapter 11
00:45:47.327                             : en:Chapter 12
00:49:51.822                             : en:Chapter 13
00:56:54.994                             : en:Chapter 14
00:58:35.220                             : en:Chapter 15
01:02:48.931                             : en:Chapter 16
01:07:16.615                             : en:Chapter 17
01:12:48.822                             : en:Chapter 18
01:15:21.808                             : en:Chapter 19
01:18:10.018                             : en:Chapter 20



[+] Notes
Used fillmargins and balanceborders to fix dirty lines.
Used zones on few dark scenes with banding.



Скриншоты:
[+] Всего файлов в раздаче - 1:
The.Secret.Life.of.Pets.2.2019.x264.BDRip.1080p.Rus.Eng.ExKinoRay.mkv7.25 GB

Показать еще раздачи по запросу тайная:
2019-09-08 U Тайная жизнь домашних животных 2 / The Secret Life of Pets 2 (2019) HDRip от Scarabey | iTunes 1.41 GB ↑ 56 ↓ 14
2019-09-07 U Тайная жизнь домашних животных 2 / The Secret Life of Pets 2 (2019) BDRemux 1080p от селезень | D, P | iTunes 21.94 GB ↑ 29 ↓ 11
2019-09-07 U Тайная жизнь домашних животных 2 / The Secret Life of Pets 2 (2019) HDRip от ExKinoRay | D | iTunes 744.78 MB ↑ 38 ↓ 7
2019-09-07 U Тайная жизнь домашних животных 2 / The Secret Life of Pets 2 (2019) BDRip-HEVC 1080p | iTunes 3.20 GB ↑ 62 ↓ 5
2019-09-07 U Тайная жизнь домашних животных 2 / The Secret Life of Pets 2 (2019) BDRip-AVC от ExKinoRay | iTunes 2.00 GB ↑ 64 ↓ 13
2019-09-07 U Тайная жизнь домашних животных 2 / The Secret Life of Pets 2 (2019) UHD BDRemux 2160p от селезень | 4K | HDR | D, P | iTunes 38.38 GB ↑ 72 ↓ 25
2019-09-05 U Тайная жизнь домашних животных 2 / The Secret Life of Pets 2 (2019) BDRip 720p от селезень | D, P | iTunes 4.64 GB ↑ 33 ↓ 21

Отзывы
Зарегистрируйтесь чтобы добавить комментарий.
Обратная связь
Copyleft ©