↑↓torrent.by
Поиск
Логин: Регистрация
Пароль: Восстановить пароль

Призраки крымской войны (2021) HDTVRip 1080p | P

Скачать prizraki-krymskoy-voyny-2021-hdtvrip-1080p-p.torrent
U Магнитная ссылка Размер: 2.38 GB Раздают: 20 Качают: 6 Добавлен: 2021-09-13 09:05:02
Призраки крымской войны (2021) HDTVRip 1080p | P

Информация о видео
Название: Призраки крымской войны
Год выхода: 2021
Жанр:  Документальный, история, археология, исследование
Режиссер: Михаил Барынин
В ролях: Татьяна Шведчикова, Альберик Орлеанский, Бреана Орлеанская, Пьер Малиновски, Екатерина Малиновская, Александр Хохлов

Описание: Kpымская война 1853—1856 годов, в которой Россия противостояла нескольким странам, и прежде всего Франции и Великобритании, оставила после себя множество захоронений на территории полуострова. Их исследует совместная российско-французская группа специалистов. Фильм рассказывает, как археологи, антропологи и историки занимаются раскопками, идентификацией останков, реконструкцией лиц при помощи компьютерных технологий. Среди членов группы — девушка, наполовину русская, наполовину француженка, чей давний предок участвовал в битве за Ceвaстополь.

Выпущено: Россия
Продолжительность: 00:26:31
Перевод: Профессиональный многоголосый

Файл
Формат: MKV
Качество: HDTVRip
Видео: MPEG4 Video (H264) 1920x1080 25fps 12600kbps
Звук: Dolby AC3 48000Hz stereo 256kbps

Скриншоты:
[+] MediaInfo
Format                         : Matroska
Format version                 : Version 2
File size                      : 2.38 GiB
Duration                       : 26 min 31 s
Overall bit rate               : 12.8 Mb/s
Writing application            : HandBrake 0.9.5
Writing library                : libmkv 0.6.4.1

Video
ID                             : 1
Format                         : AVC
Format/Info                    : Advanced Video Codec
Format profile                 : Main@L4.1
Format settings                : CABAC / 4 Ref Frames
Format settings, CABAC         : Yes
Format settings, Reference fra : 4 frames
Codec ID                       : V_MPEG4/ISO/AVC
Duration                       : 26 min 31 s
Bit rate                       : 12.6 Mb/s
Width                          : 1 920 pixels
Height                         : 1 080 pixels
Display aspect ratio           : 16:9
Frame rate mode                : Constant
Frame rate                     : 25.000 FPS
Color space                    : YUV
Chroma subsampling             : 4:2:0
Bit depth                      : 8 bits
Scan type                      : Progressive
Bits/(Pixel*Frame)             : 0.243
Stream size                    : 2.28 GiB (96%)
Writing library                : x264 core 112
Encoding settings              : cabac=1 / ref=2 / deblock=1:0:0 / analyse=0x1:0x111 / me=hex / subme=6 / psy=1 / psy_rd=1.00:0.00 / mixed_ref=0 / me_range=16 / chroma_me=1 / trellis=0 / 8x8dct=0 / cqm=0 / deadzone=21,11 / fast_pskip=1 / chroma_qp_offset=-2 / threads=6 / sliced_threads=0 / nr=0 / decimate=1 / interlaced=0 / constrained_intra=0 / bframes=2 / b_pyramid=2 / b_adapt=1 / b_bias=0 / direct=1 / weightb=0 / open_gop=0 / weightp=2 / keyint=250 / keyint_min=25 / scenecut=40 / intra_refresh=0 / rc_lookahead=40 / rc=2pass / mbtree=1 / bitrate=12576 / ratetol=1.0 / qcomp=0.60 / qpmin=3 / qpmax=51 / qpstep=4 / cplxblur=20.0 / qblur=0.5 / ip_ratio=1.40 / aq=1:1.00
Language                       : English
Default                        : Yes
Forced                         : No
Color range                    : Limited
Color primaries                : BT.709
Transfer characteristics       : BT.709
Matrix coefficients            : BT.709

Audio
ID                             : 2
Format                         : AC-3
Format/Info                    : Audio Coding 3
Commercial name                : Dolby Digital
Codec ID                       : A_AC3
Duration                       : 26 min 31 s
Bit rate mode                  : Constant
Bit rate                       : 256 kb/s
Channel(s)                     : 2 channels
Channel layout                 : L R
Sampling rate                  : 48.0 kHz
Frame rate                     : 31.250 FPS (1536 SPF)
Compression mode               : Lossy
Stream size                    : 48.6 MiB (2%)
Language                       : Russian
Service kind                   : Complete Main
Default                        : Yes
Forced                         : No



Скриншоты:
[+] Всего файлов в раздаче - 1:
Ghosts.of.the.Crimean.War.1080p.mkv2.38 GB

Похожие раздачи по запросу - призраки:
2021-09-18 U Призраки / Ghosts [S01-03] (2019-2021) WEB-DL 1080p | Кураж-Бамбей 12.24 GB ↑ 42 ↓ 53
2021-08-04 U Призраки Арбата [01-02 из 02] (2020) WEB-DLRip от Files-x 1.12 GB ↑ 27 ↓ 7
2021-06-04 U Проклятие: Призраки дома Борли / The Banishing (2020) WEB-DLRip от MegaPeer | iTunes 1.45 GB ↑ 299 ↓ 54

Отзывы
Зарегистрируйтесь чтобы добавить комментарий.
Загрузите программу
  byTorrent
Обратная связь
Copyleft ©