↑↓torrent.by
Поиск
Логин: Регистрация
Пароль: Восстановить пароль

Огрики / Smelliville (2021) WEB-DLRip-AVC | iTunes

Скачать ogriki-smelliville-2021-web-dlrip-avc-itunes.torrent
U Магнитная ссылка Размер: 1.45 GB Раздают: 22 Качают: 7 Добавлен: 2021-09-13 09:05:19
Огрики / Smelliville (2021) WEB-DLRip-AVC | iTunes

Название: Огрики
Оригинальное название: Smelliville
Год выхода: 2021
Жанр:  Мультфильм, приключения, семейный
Режиссер: Тоби Генкель, Дженс Мюллер
В ролях: Семадж Александр Каннингем, Кайя Стейн, Бен Янг, Лили Хелд, Тони Кларк, Сьюзэн Такенберг, Джеральдин Блекер, Том Цанер, Андреа Дьюэлл, Фил Льюис

Описание:
Семейство Огриков на большом зеленом драконе прилетает в тихий город Нюхвиль, но местные жители почему-то им совсем не рады. И никто кроме юного изобретателя Макса и его подруги Лотти не подозревает, что только Огрики смогут спасти город от надвигающейся опасности.

Выпущено: Германия, Бельгия / WunderWerk, Grid Animation, Verlag Friedrich Oetinger
Продолжительность: 01:24:34
Озвучивание: Дублированное | iTunes
Субтитры: Нет

Файл                                      
Формат: Matroska
Качество: WEB-DLRip-AVC
Видео: 1024x552 at 24.000 fps, x264@L4.1, ~2071 kbps
Аудио: AC3, 6 ch, ~384 kbps - | Русский | -

***Релиз от: -=DoMiNo=-


[+] M/I
x264 [info]: frame I:1136  Avg QP:15.52  size: 93157
x264 [info]: frame P:34262 Avg QP:18.67  size: 21478
x264 [info]: frame B:86362 Avg QP:20.58  size:  5449
x264 [info]: consecutive B-frames:  5.9%  4.7%  6.2% 57.2%  7.0% 15.5%  1.3%  1.2%  0.2%  0.2%  0.1%  0.3%  0.1%

General
Unique ID                   : 214616633042397272786659567999484803653 (0xA175A8F6AD4E891DCCE3FD975289BA45)
Complete name               : I:Огрики.(2021).WEB-DLRip-AVC.[-=DoMiNo=-].mkv
Format                      : Matroska
Format version              : Version 4
File size                   : 1.45 GiB
Duration                    : 1 h 24 min
Overall bit rate            : 2 455 kb/s
Movie name                  : Огрики.(2021).WEB-DLRip-AVC.[-=DoMiNo=-]
Encoded date                : UTC 2021-09-12 13:22:05
Writing application         : mkvmerge v61.0.0 ('So') 64-bit
Writing library             : libebml v1.4.2 + libmatroska v1.6.4
Cover                       : Yes
Attachments                 : Cover.png / Cover 2.jpg

Video
ID                          : 1
Format                      : AVC
Format/Info                 : Advanced Video Codec
Format profile              : High@L4.1
Format settings             : CABAC / 12 Ref Frames
Format settings, CABAC      : Yes
Format settings, Reference  : 12 frames
Codec ID                    : V_MPEG4/ISO/AVC
Duration                    : 1 h 24 min
Bit rate                    : 2 071 kb/s
Width                       : 1 024 pixels
Height                      : 552 pixels
Display aspect ratio        : 1.85:1
Frame rate mode             : Constant
Frame rate                  : 24.000 FPS
Color space                 : YUV
Chroma subsampling          : 4:2:0
Bit depth                   : 8 bits
Scan type                   : Progressive
Bits/(Pixel*Frame)          : 0.153
Stream size                 : 1.22 GiB (84%)
Title                       : -=DoMiNo=-
Writing library             : x264 core 164 r3065+55M 280faca t_mod_New [(8 & 10)-bit@all X86_64]
Encoding settings           : cabac=1 / ref=12 / deblock=1:-3:-2 / analyse=0x3:0x133 / me=umh / subme=10 / psy=1 / fade_compensate=0.00 / psy_rd=1.00:0.20 / mixed_ref=1 / me_range=32 / chroma_me=1 / trellis=2 / 8x8dct=1 / cqm=0 / deadzone=21,11 / fast_pskip=0 / chroma_qp_offset=-3 / threads=24 / lookahead_threads=4 / sliced_threads=0 / nr=0 / decimate=0 / interlaced=0 / bluray_compat=0 / constrained_intra=0 / fgo=0 / bframes=12 / b_pyramid=2 / b_adapt=2 / b_bias=0 / direct=3 / weightb=1 / open_gop=0 / weightp=2 / keyint=240 / keyint_min=24 / scenecut=40 / intra_refresh=0 / rc_lookahead=60 / rc=2pass / mbtree=0 / bitrate=2071 / ratetol=1.0 / qcomp=0.70 / qpmin=0:0:0 / qpmax=69:69:69 / qpstep=4 / cplxblur=20.0 / qblur=0.5 / vbv_maxrate=50000 / vbv_bufsize=62500 / nal_hrd=none / filler=0 / ip_ratio=1.40 / pb_ratio=1.30 / aq=2:1.00 / aq-sensitivity=10.00 / aq-factor=1.00:1.00:1.00 / aq2=0 / aq3=0
Language                    : German
Default                     : Yes
Forced                      : No

Audio
ID                          : 2
Format                      : AC-3
Format/Info                 : Audio Coding 3
Commercial name             : Dolby Digital
Codec ID                    : A_AC3
Duration                    : 1 h 24 min
Bit rate mode               : Constant
Bit rate                    : 384 kb/s
Channel(s)                  : 6 channels
Channel layout              : L R C LFE Ls Rs
Sampling rate               : 48.0 kHz
Frame rate                  : 31.250 FPS (1536 SPF)
Compression mode            : Lossy
Stream size                 : 232 MiB (16%)
Title                       : DUB (iTunes)
Language                    : Russian
Service kind                : Complete Main
Default                     : Yes
Forced                      : Yes

Menu
00:00:00.000                : Scene 1
00:06:04.000                : Scene 2
00:11:20.000                : Scene 3
00:17:24.000                : Scene 4
00:22:29.000                : Scene 5
00:27:51.000                : Scene 6
00:33:48.000                : Scene 7
00:39:37.000                : Scene 8
00:47:04.000                : Scene 9
00:52:55.000                : Scene 10
00:57:10.000                : Scene 11
01:01:20.000                : Scene 12
01:05:41.000                : Scene 13
01:11:45.000                : Scene 14
01:16:51.000                : Scene 15
01:20:20.000                : Scene 16



Скриншоты:
[+] Всего файлов в раздаче - 1:
Огрики.(2021).WEB-DLRip-AVC.[-=DoMiNo=-].mkv1.45 GB

Похожие раздачи по запросу - огрики:
2021-09-12 U Огрики / Smelliville (2021) WEB-DLRip от ELEKTRI4KA | iTunes 1.37 GB ↑ 95 ↓ 47
2021-09-12 U Огрики / Smelliville (2021) WEB-DL 1080p от ELEKTRI4KA | iTunes 4.10 GB ↑ 86 ↓ 37

Отзывы
Зарегистрируйтесь чтобы добавить комментарий.
Загрузите программу
  byTorrent
Обратная связь
Copyleft ©