↑↓Torrent.by
Поиск
Логин: Регистрация
Пароль: Восстановить пароль
Загрузка...

Русская невеста / The Russian Bride (2019) WEB-DLRip-AVC от OlLanDGroup | P | iTunes

Скачать russkaya-nevesta-the-russian-bride-2019-web-dlrip-avc-ot-ollandgroup-p-itunes.torrent
U Магнитная ссылка Размер: 1.73 GB Раздают: 47 Качают: 6 Добавлен: 2019-09-10 05:02:26
Русская невеста / The Russian Bride (2019) WEB-DLRip-AVC от OlLanDGroup | P | iTunes

Русская невеста / The Russian Bride
«Hear no evil»

Год выпуска: 2019
Страна: США
Производство: Reigning Entertainment, Millman Productions, Edge West Productions
Жанр:  Ужасы, триллер

Режиссёр: Майкл С. Ойеда
В ролях: Корбин Бернсен, Оксана Орлан, Кристина Пименова, Лиза Гудман, Майкл Роберт Брэндон, Элисон Корман, Кинэн Джонстон, Грегори О'Галлахер, Ефим Сомен, Кеннет Г. Боден

Перевод: Профессиональный многоголосый | [iTunes], Профессиональный многоголосый | [HDRezka Studio]
Субтитры: Английские (полные, SDH)
Реклама: Отсутствует

Описание: Простая русская женщина знакомится в интернете с американским миллионером-затворником, затем выходит за него замуж и переезжает в США. Вот только на новом месте семейная идиллия длится недолго: супруг вскоре начинает себя очень странно вести, а в результате и вовсе оказывается психопатом.

Качество: WEB-DLRip-AVC | AMZN Version |
Продолжительность: 01:41:24

Формат: MKV
Видео кодек: MPEG-4 AVC
Аудио кодек: AC3
Видео: 1024x466 (2.2:1), 23,976 fps, x264 ~1 611 kbps avg, 0.141 bit/pixel
Аудио #1: 48 kHz, AC3 Dolby Digital Plus, 3/2 (L,C,R,l,r) + LFE ch, ~384.00 kbps avg | RUS (iTunes)
Аудио #2: 48 kHz, AC3 Dolby Digital, 2 (L,R) ch, ~192.00 kbps avg | RUS (HDRezka Studio)
Аудио #3: 48 kHz, AC3 Dolby Digital Plus, 3/2 (L,C,R,l,r) + LFE ch, ~256.00 kbps avg | ENG

Дата премьеры (мир): 2 марта 2019
Дата премьеры (РФ): 16 мая 2019, «Кинолэнд»
Цифровой релиз:

Релиз:


[+] MediaInfo

Общее
Уникальный идентификатор                 : 10141774565318236245485480197640422974 (0x7A13C176D22A7966FC014FCDA0C063E)
Полное имя                               : F:OlLanDGroupThe.Russian.Bride.2019.AMZN.WEB-DLRip(AVC).OlLanDGroup.mkv
Формат                                   : Matroska
Версия формата                           : Version 4 / Version 2
Размер файла                             : 1,73 Гбайт
Продолжительность                        : 1 ч. 41 м.
Общий поток                              : 2440 Кбит/сек
Название фильма                          : The.Russian.Bride.2019   #TorpedoUK#
Дата кодирования                         : UTC 2019-09-09 12:07:49
Программа кодирования                    : mkvmerge v29.0.0 ('Like It Or Not') 64-bit
Библиотека кодирования                   : libebml v1.3.6 + libmatroska v1.4.9

Видео
Идентификатор                            : 1
Формат                                   : AVC
Формат/Информация                        : Advanced Video Codec
Профиль формата                          : High@L4.1
Параметр CABAC формата                   : Да
Параметр ReFrames формата                : 10 кадров
Идентификатор кодека                     : V_MPEG4/ISO/AVC
Продолжительность                        : 1 ч. 41 м.
Битрейт                                  : 1611 Кбит/сек
Ширина                                   : 1024 пикселя
Высота                                   : 466 пикселей
Соотношение сторон                       : 2,2:1
Режим частоты кадров                     : Постоянный
Частота кадров                           : 23,976 (24000/1001) кадра/сек
Цветовое пространство                    : YUV
Субдискретизация насыщенности            : 4:2:0
Битовая глубина                          : 8 бит
Тип развёртки                            : Прогрессивная
Бит/(Пиксели*Кадры)                      : 0.141
Размер потока                            : 1,14 Гбайт (66%)
Библиотека кодирования                   : x264 core 146 r2538 121396c
Настройки программы                      : cabac=1 / ref=10 / deblock=1:-2:-3 / analyse=0x3:0x113 / me=umh / subme=10 / psy=1 / psy_rd=0.95:0.07 / mixed_ref=1 / me_range=48 / chroma_me=1 / trellis=2 / 8x8dct=1 / cqm=0 / deadzone=21,11 / fast_pskip=1 / chroma_qp_offset=-3 / threads=6 / lookahead_threads=1 / sliced_threads=0 / nr=0 / decimate=1 / interlaced=0 / bluray_compat=0 / constrained_intra=0 / bframes=11 / b_pyramid=2 / b_adapt=2 / b_bias=0 / direct=3 / weightb=1 / open_gop=0 / weightp=2 / keyint=240 / keyint_min=23 / scenecut=40 / intra_refresh=0 / rc_lookahead=40 / rc=2pass / mbtree=0 / bitrate=1611 / ratetol=1.0 / qcomp=0.60 / qpmin=0 / qpmax=69 / qpstep=4 / cplxblur=20.0 / qblur=0.5 / vbv_maxrate=50000 / vbv_bufsize=62500 / nal_hrd=none / filler=0 / ip_ratio=1.40 / pb_ratio=1.30 / aq=1:1.00
Default                                  : Да
Forced                                   : Нет

Аудио #1
Идентификатор                            : 2
Формат                                   : AC-3
Формат/Информация                        : Audio Coding 3
Расширение режима                        : CM (complete main)
Параметр Endianness формата              : Big
Идентификатор кодека                     : A_AC3
Продолжительность                        : 1 ч. 41 м.
Вид битрейта                             : Постоянный
Битрейт                                  : 384 Кбит/сек
Каналы                                   : 6 каналов
Расположение каналов                     : Front: L C R, Side: L R, LFE
Частота                                  : 48,0 КГц
Частота кадров                           : 31,250 кадров/сек (1536 spf)
Битовая глубина                          : 16 бит
Метод сжатия                             : С потерями
Размер потока                            : 278 Мбайт (16%)
Заголовок                                : MVO [iTunes]
Язык                                     : Russian
Default                                  : Да
Forced                                   : Нет

Аудио #2
Идентификатор                            : 3
Формат                                   : AC-3
Формат/Информация                        : Audio Coding 3
Расширение режима                        : CM (complete main)
Параметр Endianness формата              : Big
Идентификатор кодека                     : A_AC3
Продолжительность                        : 1 ч. 41 м.
Вид битрейта                             : Постоянный
Битрейт                                  : 192 Кбит/сек
Каналы                                   : 2 канала
Расположение каналов                     : Front: L R
Частота                                  : 48,0 КГц
Частота кадров                           : 31,250 кадров/сек (1536 spf)
Битовая глубина                          : 16 бит
Метод сжатия                             : С потерями
Размер потока                            : 139 Мбайт (8%)
Заголовок                                : MVO [HDRezka Studio]
Язык                                     : Russian
Default                                  : Нет
Forced                                   : Нет

Аудио #3
Идентификатор                            : 4
Формат                                   : AC-3
Формат/Информация                        : Audio Coding 3
Расширение режима                        : CM (complete main)
Параметр Endianness формата              : Big
Идентификатор кодека                     : A_AC3
Продолжительность                        : 1 ч. 41 м.
Вид битрейта                             : Постоянный
Битрейт                                  : 256 Кбит/сек
Каналы                                   : 6 каналов
Расположение каналов                     : Front: L C R, Side: L R, LFE
Частота                                  : 48,0 КГц
Частота кадров                           : 31,250 кадров/сек (1536 spf)
Битовая глубина                          : 16 бит
Метод сжатия                             : С потерями
Размер потока                            : 186 Мбайт (10%)
Заголовок                                : [Original]
Язык                                     : English
Default                                  : Нет
Forced                                   : Нет

Текст #1
Идентификатор                            : 5
Формат                                   : UTF-8
Идентификатор кодека                     : S_TEXT/UTF8
Идентификатор кодека/Информация          : UTF-8 Plain Text
Продолжительность                        : 1 ч. 33 м.
Битрейт                                  : 35 бит/сек
Count of elements                        : 994
Размер потока                            : 24,7 Кбайт (0%)
Заголовок                                : Full
Язык                                     : English
Default                                  : Нет
Forced                                   : Нет

Текст #2
Идентификатор                            : 6
Формат                                   : UTF-8
Идентификатор кодека                     : S_TEXT/UTF8
Идентификатор кодека/Информация          : UTF-8 Plain Text
Продолжительность                        : 1 ч. 37 м.
Битрейт                                  : 45 бит/сек
Count of elements                        : 1440
Размер потока                            : 32,1 Кбайт (0%)
Заголовок                                : SDH
Язык                                     : English
Default                                  : Нет
Forced                                   : Нет



Скриншоты:
[+] Всего файлов в раздаче - 1:
The.Russian.Bride.2019.AMZN.WEB-DLRip(AVC).OlLanDGroup.mkv1.73 GB

Показать еще раздачи по запросу русская:
2019-09-09 U Русская невеста / The Russian Bride (2019) WEB-DLRip от MegaPeer | iTunes 1.46 GB ↑ 796 ↓ 173
2019-09-09 U Русская невеста / The Russian Bride (2019) WEB-DL 1080p от селезень | iTunes 7.23 GB ↑ 42 ↓ 29
2019-08-01 U Стейнберг Марк Д. Д. - Великая русская революция, 1905-1921 (2018) FB2 3.18 MB ↑ 62 ↓ 2
2019-03-26 U Русская невеста / The Russian Bride (2019) HDRip-AVC | L1 1.19 GB ↑ 397 ↓ 114
2019-01-02 U Однажды в Америке или Чисто русская сказка (2018) WEBRip от GeneralFilm 1.45 GB ↑ 1213 ↓ 230
2018-05-13 U Серия книг - «Русская фантастика» [302 книги] (2003-2018) FB2 428.25 MB ↑ 582 ↓ 72
2018-02-02 U Анатолий Полотно - Русская судьба (2018) MP3 97.57 MB ↑ 375 ↓ 28

Отзывы
slavonus24
Понравился кин. Не треш, просто малобюджетный хоррор-триллер. Не сильно страшный, но смотрится с интересом. Особенно понравилась сцена первой близости - эх, женщины, хорошие удовлетворительницы мужчины!;) История с мальчиком не нова, но в обрамлении русская невеста для американца получилось неплохо. Спасибо за правильный рип, оценил. Картинка правильная, холодная. PS. - Крови в финале много, будьте готовы.о_О

Зарегистрируйтесь чтобы добавить комментарий.
Обратная связь
Copyleft ©