↑↓Torrent.by
Поиск
Логин: Регистрация
Пароль: Восстановить пароль
Загрузка...

Обитель страха / The Wind (2018) BDRip 720p от селезень | iTunes

Скачать obitel-straha-the-wind-2018-bdrip-720p-ot-selezen-itunes.torrent
U Магнитная ссылка Размер: 4.56 GB Раздают: 37 Качают: 16 Добавлен: 2019-09-10 05:02:46
Обитель страха / The Wind (2018) BDRip 720p от селезень | iTunes

Название: Обитель страха
Оригинальное название: The Wind
Год выхода: 2018
Жанр: Ужасы, вестерн
Режиссер: Эмма Тамми
В ролях: Майлз Андерсон, Кейтлин Джерард, Джулия Голден Теллес, Дилан МакТи, Мартин Си Паттерсон, Эшли Цукерман

О фильме: Дикий Запад, конец XIX века. Где-то в бескрайних прериях живёт молодая пара. Муж часто отлучается на заработки в город и оставляет Лиззи одну, поэтому она очень обрадовалась, когда рядом поселилась ещё одна семейная пара. Теперь женщине есть с кем поговорить и провести время. Но забеременев, новая подруга начинает странно себя вести и утверждать, что где-то поблизости бродит нечто потустороннее.

Страна: США
Студия: Divide / Conquer, Mind Hive Films, Soapbox Films
Продолжительность: 01:28:09
Перевод: Дублированный | iTunes

Качество: BDRip 720p
Видео: MPEG-4 AVC, 1280x538, 6376 Kbit/s, 23.976 fps
Звук:
Аудио #01: 48 kHz, AC3, 5.1, 384 Kbps | iTunes | RUS |
Аудио #02: 48 kHz, AC3, 5.1, 640 Kbps | Оригинал |  ENG |
Субтитры: Русские (Full), английские

Релиз:


[+] MI
General
Unique ID                   : 195644743759942358650675404848083017586 (0x932FCE9AA09142517A7C642FDF389F72)
Complete name               : D:Video111The.Wind.2018.BDRip.720p.seleZen.mkv
Format                      : Matroska
Format version              : Version 4
File size                   : 4.56 GiB
Duration                    : 1 h 28 min
Overall bit rate            : 7 398 kb/s
Movie name                  : The Wind 2018 from селезень
Encoded date                : UTC 2019-09-09 05:13:10
Writing application         : mkvmerge v22.0.0 ('At The End Of The World') 64-bit
Writing library             : libebml v1.3.5 + libmatroska v1.4.8

Video
ID                          : 1
Format                      : AVC
Format/Info                 : Advanced Video Codec
Format profile              : High@L4.1
Format settings             : CABAC / 12 Ref Frames
Format settings, CABAC      : Yes
Format settings, Reference  : 12 frames
Codec ID                    : V_MPEG4/ISO/AVC
Duration                    : 1 h 28 min
Bit rate                    : 6 376 kb/s
Width                       : 1 280 pixels
Height                      : 538 pixels
Display aspect ratio        : 2.40:1
Frame rate mode             : Constant
Frame rate                  : 23.976 (24000/1001) FPS
Color space                 : YUV
Chroma subsampling          : 4:2:0
Bit depth                   : 8 bits
Scan type                   : Progressive
Bits/(Pixel*Frame)          : 0.386
Stream size                 : 3.92 GiB (86%)
Title                       : Encoded by seleZen
Writing library             : x264 core 148 r2705kMod 3f5ed56
Encoding settings           : cabac=1 / ref=12 / deblock=1:-2:-2 / analyse=0x3:0x113 / me=umh / subme=11 / psy=1 / fade_compensate=0.00 / psy_rd=1.01:0.03 / mixed_ref=1 / me_range=32 / chroma_me=1 / trellis=2 / 8x8dct=1 / cqm=0 / deadzone=21,11 / fast_pskip=0 / chroma_qp_offset=-3 / threads=17 / lookahead_threads=4 / sliced_threads=0 / nr=0 / decimate=0 / interlaced=0 / bluray_compat=0 / constrained_intra=0 / fgo=0 / bframes=10 / b_pyramid=2 / b_adapt=2 / b_bias=0 / direct=3 / weightb=1 / open_gop=0 / weightp=2 / keyint=240 / keyint_min=23 / scenecut=40 / intra_refresh=0 / rc_lookahead=50 / rc=2pass / mbtree=0 / bitrate=6376 / ratetol=1.0 / qcomp=0.60 / qpmin=0 / qpmax=51 / qpstep=4 / cplxblur=20.0 / qblur=0.5 / vbv_maxrate=50000 / vbv_bufsize=62500 / nal_hrd=none / filler=0 / ip_ratio=1.40 / pb_ratio=1.30 / aq=3:0.80
Language                    : English
Default                     : Yes
Forced                      : No

Audio #1
ID                          : 2
Format                      : AC-3
Format/Info                 : Audio Coding 3
Commercial name             : Dolby Digital
Codec ID                    : A_AC3
Duration                    : 1 h 28 min
Bit rate mode               : Constant
Bit rate                    : 384 kb/s
Channel(s)                  : 6 channels
Channel layout              : L R C LFE Ls Rs
Sampling rate               : 48.0 kHz
Frame rate                  : 31.250 FPS (1536 SPF)
Bit depth                   : 16 bits
Compression mode            : Lossy
Stream size                 : 242 MiB (5%)
Title                       : iTunes
Language                    : Russian
Service kind                : Complete Main
Default                     : Yes
Forced                      : Yes

Audio #2
ID                          : 3
Format                      : AC-3
Format/Info                 : Audio Coding 3
Commercial name             : Dolby Digital
Codec ID                    : A_AC3
Duration                    : 1 h 28 min
Bit rate mode               : Constant
Bit rate                    : 640 kb/s
Channel(s)                  : 6 channels
Channel layout              : L R C LFE Ls Rs
Sampling rate               : 48.0 kHz
Frame rate                  : 31.250 FPS (1536 SPF)
Bit depth                   : 16 bits
Compression mode            : Lossy
Stream size                 : 404 MiB (9%)
Title                       : Original
Language                    : English
Service kind                : Complete Main
Default                     : No
Forced                      : No

Text #1
ID                          : 4
Format                      : UTF-8
Codec ID                    : S_TEXT/UTF8
Codec ID/Info               : UTF-8 Plain Text
Duration                    : 1 h 19 min
Bit rate                    : 31 b/s
Count of elements           : 411
Stream size                 : 18.2 KiB (0%)
Title                       : Full
Language                    : Russian
Default                     : No
Forced                      : No

Text #2
ID                          : 5
Format                      : UTF-8
Codec ID                    : S_TEXT/UTF8
Codec ID/Info               : UTF-8 Plain Text
Duration                    : 1 h 16 min
Bit rate                    : 19 b/s
Count of elements           : 444
Stream size                 : 10.8 KiB (0%)
Title                       : Full
Language                    : English
Default                     : No
Forced                      : No

Text #3
ID                          : 6
Format                      : UTF-8
Codec ID                    : S_TEXT/UTF8
Codec ID/Info               : UTF-8 Plain Text
Duration                    : 1 h 27 min
Bit rate                    : 22 b/s
Count of elements           : 669
Stream size                 : 14.1 KiB (0%)
Title                       : SDH
Language                    : English
Default                     : No
Forced                      : No

Menu
00:00:00.000                : en:Chapter 1
00:06:00.276                : en:Chapter 2
00:14:10.974                : en:Chapter 3
00:22:41.609                : en:Chapter 4
00:29:46.450                : en:Chapter 5
00:34:52.673                : en:Chapter 6
00:39:31.868                : en:Chapter 7
00:49:07.402                : en:Chapter 8
00:55:58.396                : en:Chapter 9
01:02:06.013                : en:Chapter 10
01:09:49.726                : en:Chapter 11
01:16:58.029                : en:Chapter 12



Скриншоты:
[+] Всего файлов в раздаче - 1:
The.Wind.2018.BDRip.720p.seleZen.mkv4.56 GB

Похожие раздачи по запросу - обитель:
2019-09-10 U Обитель страха / The Wind (2018) BDRip от MegaPeer | iTunes 1.42 GB ↑ 81 ↓ 14
2019-09-09 U Обитель страха / The Wind (2018) BDRip 1080p от селезень | iTunes 7.02 GB ↑ 200 ↓ 83
2019-08-19 U Обитель тьмы / Heilstätten (2018) BDRip 1080p | iTunes 2К7.88 GB ↑ 59 ↓ 43
2019-07-12 U Обитель страха / The Wind (2018) WEB-DLRip-AVC от OlLanDGroup | D, P | iTunes 1.48 GB ↑ 57 ↓ 19
2017-03-23 U Обитель зла: Последняя глава / Resident Evil: The Final Chapter (2016) WEB-DLRip от MegaPeer | Line 1.46 GB ↑ 705 ↓ 280

Отзывы
Зарегистрируйтесь чтобы добавить комментарий.
Обратная связь
Copyleft ©