↑↓Torrent.by
Поиск
Логин: Регистрация
Пароль: Восстановить пароль
Загрузка...

Маугли дикой планеты / Terra Willy: Planète inconnue (2019) BDRip-AVC от ExKinoRay | iTunes

Скачать maugli-dikoy-planety-terra-willy-plan-te-inconnue-2019-bdrip-avc-ot-exkinoray-itunes.torrent
U Магнитная ссылка Размер: 1.71 GB Раздают: 21 Качают: 9 Добавлен: 2019-09-10 08:11:57
Маугли дикой планеты / Terra Willy: Planète inconnue (2019) BDRip-AVC от ExKinoRay | iTunes

Название: Маугли дикой планеты
Оригинальное название: Terra Willy: Planète inconnue
Год выпуска: 2019
Жанр:  Мультфильм, фантастика, комедия, приключения, полнометражный
Режиссёр: Эрик Тости
В ролях: Тимоте Фон Дорп, Эдуард Баэр, Мари-Южени Марешаль, Гийом Лебон, Барбара Тиссье, Джейсон Каннинг, Лэнден Битти

О фильме: Попав в метеоритный дождь, юный космический исследователь Вилли оказывается на неизвестной планете. С помощью робота Бака он должен выжить здесь до прибытия спасательной миссии его родителей. Но батарея Бака быстро садится, и, чтобы спасти Бака и вернуться домой, Вилли придется найти новых друзей и научиться жить по законам джунглей дикой планеты.

Выпущено: Франция, TAT Productions, Bac Films, France 3 Cinéma
Продолжительность: 01:30:03
Перевод: Дублированный | iTunes

Формат: MKV
Качество: BDRip-AVC
Видео: MPEG-4 AVC, 1024x428 (2.40:1), 24.000 fps, 1889 Kbps, 0.180 bit/pixel
Аудио #02: 48 kHz, AC3, 5.1, 384 Kbps | RUS |
Аудио #02: 48 kHz, AC3, 5.1, 448 Kbps | Оригинал |  ENG |
Субтитры: Английские

Релиз:

Автор релиза:


[+] ОтчетМедиаИнфо

General
Unique ID                                : 206774544814306511632959913766044046135 (0x9B8F542994FF884AABBCBC90C2501337)
Complete name                            : F:Terra.Willy.Planete.Inconnue.aka.Astro.Kid.2019.BDRip.AVC.ExKinoRay.mkv
Format                                   : Matroska
Format version                           : Version 2
File size                                : 1.71 GiB
Duration                                 : 1 h 30 min
Overall bit rate                         : 2 723 kb/s
Movie name                               : Маугли дикой планеты 2019 from ExKinoRay
Encoded date                             : UTC 2019-09-09 04:47:32
Writing application                      : mkvmerge v5.6.0 ('Kenya Kane') built on May 27 2012 16:44:04
Writing library                          : libebml v1.2.3 + libmatroska v1.3.0

Video
ID                                       : 1
Format                                   : AVC
Format/Info                              : Advanced Video Codec
Format profile                           : High@L4.1
Format settings, CABAC                   : Yes
Format settings, ReFrames                : 12 frames
Codec ID                                 : V_MPEG4/ISO/AVC
Duration                                 : 1 h 30 min
Bit rate                                 : 1 889 kb/s
Width                                    : 1 024 pixels
Height                                   : 428 pixels
Display aspect ratio                     : 2.40:1
Frame rate mode                          : Constant
Frame rate                               : 24.000 FPS
Color space                              : YUV
Chroma subsampling                       : 4:2:0
Bit depth                                : 8 bits
Scan type                                : Progressive
Bits/(Pixel*Frame)                       : 0.180
Stream size                              : 1.16 GiB (67%)
Title                                    : Enigma
Writing library                          : x264 core 152 r2851 ba24899
Encoding settings                        : cabac=1 / ref=12 / deblock=1:-2:-2 / analyse=0x3:0x113 / me=umh / subme=10 / psy=1 / psy_rd=1.05:0.10 / mixed_ref=1 / me_range=32 / chroma_me=1 / trellis=2 / 8x8dct=1 / cqm=0 / deadzone=21,11 / fast_pskip=0 / chroma_qp_offset=-3 / threads=12 / lookahead_threads=3 / sliced_threads=0 / nr=0 / decimate=0 / interlaced=0 / bluray_compat=0 / constrained_intra=0 / bframes=10 / b_pyramid=2 / b_adapt=2 / b_bias=0 / direct=3 / weightb=1 / open_gop=0 / weightp=2 / keyint=240 / keyint_min=24 / scenecut=40 / intra_refresh=0 / rc=2pass / mbtree=0 / bitrate=1889 / ratetol=1.0 / qcomp=0.60 / qpmin=0 / qpmax=51 / qpstep=4 / cplxblur=20.0 / qblur=0.5 / ip_ratio=1.25 / pb_ratio=1.30 / aq=1:1.00
Language                                 : English
Default                                  : Yes
Forced                                   : No
Color range                              : Limited
Color primaries                          : BT.709
Transfer characteristics                 : BT.709
Matrix coefficients                      : BT.709

Audio #1
ID                                       : 2
Format                                   : AC-3
Format/Info                              : Audio Coding 3
Mode extension                           : CM (complete main)
Format settings, Endianness              : Big
Codec ID                                 : A_AC3
Duration                                 : 1 h 30 min
Bit rate mode                            : Constant
Bit rate                                 : 384 kb/s
Channel(s)                               : 6 channels
Channel positions                        : Front: L C R, Side: L R, LFE
Sampling rate                            : 48.0 kHz
Frame rate                               : 31.250 FPS (1536 spf)
Compression mode                         : Lossy
Stream size                              : 247 MiB (14%)
Title                                    : iTunes
Language                                 : Russian
Default                                  : Yes
Forced                                   : No

Audio #2
ID                                       : 3
Format                                   : AC-3
Format/Info                              : Audio Coding 3
Mode extension                           : CM (complete main)
Format settings, Endianness              : Big
Codec ID                                 : A_AC3
Duration                                 : 1 h 30 min
Bit rate mode                            : Constant
Bit rate                                 : 448 kb/s
Channel(s)                               : 6 channels
Channel positions                        : Front: L C R, Side: L R, LFE
Sampling rate                            : 48.0 kHz
Frame rate                               : 31.250 FPS (1536 spf)
Compression mode                         : Lossy
Stream size                              : 289 MiB (16%)
Language                                 : English
Default                                  : No
Forced                                   : No

Text
ID                                       : 4
Format                                   : UTF-8
Codec ID                                 : S_TEXT/UTF8
Codec ID/Info                            : UTF-8 Plain Text
Language                                 : English
Default                                  : No
Forced                                   : No

Menu
00:00:00.000                             : it:00:00:00.000
00:04:20.417                             : it:00:04:20.417
00:07:44.417                             : it:00:07:44.417
00:11:54.083                             : it:00:11:54.083
00:16:28.208                             : it:00:16:28.208
00:21:05.458                             : it:00:21:05.458
00:25:25.750                             : it:00:25:25.750
00:29:45.083                             : it:00:29:45.083
00:34:37.250                             : it:00:34:37.250
00:39:03.458                             : it:00:39:03.458
00:43:16.417                             : it:00:43:16.417
00:47:32.333                             : it:00:47:32.333
00:51:55.417                             : it:00:51:55.417
00:57:30.667                             : it:00:57:30.667
01:01:45.208                             : it:01:01:45.208
01:06:53.667                             : it:01:06:53.667
01:11:19.042                             : it:01:11:19.042
01:15:46.125                             : it:01:15:46.125
01:20:40.667                             : it:01:20:40.667
01:26:54.875                             : it:01:26:54.875




Скриншоты:
[+] Всего файлов в раздаче - 1:
Terra.Willy.Planete.Inconnue.aka.Astro.Kid.2019.BDRip.AVC.ExKinoRay.mkv1.71 GB

Показать еще раздачи по запросу маугли:
2019-09-10 U Маугли дикой планеты / Terra Willy: Planète inconnue / Astro Kid (2019) BDRip от MegaPeer | iTunes 1.42 GB ↑ 94 ↓ 12
2019-09-09 U Маугли дикой планеты / Terra Willy: Planete inconnue (2019) BDRip(1080p) 6.08 GB ↑ 21 ↓ 1
2019-08-06 U Маугли дикой планеты / Terra Willy: Planète inconnue (2019) WEB-DLRip-AVC от ExKinoRay | iTunes 1.43 GB ↑ 133 ↓ 42
2019-08-06 U Маугли дикой планеты / Terra Willy: Planète inconnue (2019) WEB-DL 1080p | iTunes 2.94 GB ↑ 237 ↓ 74
2018-12-09 U Маугли / Маугли: Легенда джунглей / Mowgli (2018) WEBRip 720p | Пифагор 2.18 GB ↑ 318 ↓ 129
2018-12-09 U Маугли / Маугли: Легенда джунглей / Mowgli (2018) WEB-DLRip от Scarabey | Пифагор 1.45 GB ↑ 510 ↓ 145
2018-12-09 U Маугли / Маугли: Легенда джунглей / Mowgli (2018) WEBRip 1080p | Пифагор 4.80 GB ↑ 710 ↓ 258

Отзывы
Зарегистрируйтесь чтобы добавить комментарий.
Обратная связь
Copyleft ©