↑↓Torrent.by
Поиск
Логин: Регистрация
Пароль: Восстановить пароль
Загрузка...

Небеса Ланкастера / Lancaster Skies (2019) BDRip-AVC от OlLanDGroup | L2

Скачать nebesa-lankastera-lancaster-skies-2019-bdrip-avc-ot-ollandgroup-l2.torrent
U Магнитная ссылка Размер: 1.77 GB Раздают: 72 Качают: 36 Добавлен: 2019-09-10 17:55:28
Небеса Ланкастера / Lancaster Skies (2019) BDRip-AVC от OlLanDGroup | L2

Небеса Ланкастера / Lancaster Skies
«Strike Hard Strike Sure»

Год выпуска: 2019
Страна: Великобритания
Производство: Tin Hat Productions (II), Tin Hat Productions
Жанр:  Боевик, драма, военный

Режиссёр: Каллум Берн
В ролях: Крис Саддлер, Роза Кодури, Джошуа Коллинз, Вин Хоук, Джеффри Манделл, Джоэнн Гэйл, Том Гордон, Дэвид Добсон, Стив Хили, Эд Портер

Перевод: Любительский двухголосый | [LakeFilms]
Субтитры: Английские (полные)
Реклама: Отсутствует

Описание: Перед воздушным сражением над Берлином в 1944 году американский военный летчик Дуглас должен преодолеть свой самый главный страх, который скрывается в его прошлом. От того, сможет он это сделать или нет, зависит успех всей операции.

Качество: BDRip-AVC | BDRemux | Lancaster.Skies.2019.1080p.BluRay.REMUX.AVC.DTS-HD.MA.5.1-FGT
Продолжительность: 01:38:58

Формат: MKV
Видео кодек: MPEG-4 AVC
Аудио кодек: AC3
Видео: 1024x428 (2.40:1), 24,000 fps, x264 ~1 924 kbps avg, 0.192 bit/pixel
Аудио #1: 48 kHz, AC3 Dolby Digital, 2 (L,R) ch, ~192.00 kbps avg | RUS (LakeFilms)
Аудио #2: 48 kHz, AC3 Dolby Digital, 3/2 (L,C,R,l,r) + LFE ch, ~448.00 kbps avg | ENG

Дата премьеры (мир): 15 мая 2019
Дата премьеры (РФ):

Релиз: Rip by:


[+] MediaInfo

Общее
Уникальный идентификатор                 : 327202989369030125942704442085355600398 (0xF62900E627A0244FFBCAD1F8528CBA0E)
Полное имя                               : F:OlLanDGroupLancaster.Skies.2019.BDRip(AVC).OllanDGroup.mkv
Формат                                   : Matroska
Версия формата                           : Version 4 / Version 2
Размер файла                             : 1,77 Гбайт
Продолжительность                        : 1 ч. 39 м.
Общий поток                              : 2558 Кбит/сек
Название фильма                          : Lancaster.Skies.2019   #TorpedoUK#
Дата кодирования                         : UTC 2019-09-10 08:41:00
Программа кодирования                    : mkvmerge v29.0.0 ('Like It Or Not') 64-bit
Библиотека кодирования                   : libebml v1.3.6 + libmatroska v1.4.9

Видео
Идентификатор                            : 1
Формат                                   : AVC
Формат/Информация                        : Advanced Video Codec
Профиль формата                          : High@L4.1
Параметр CABAC формата                   : Да
Параметр ReFrames формата                : 10 кадров
Идентификатор кодека                     : V_MPEG4/ISO/AVC
Продолжительность                        : 1 ч. 38 м.
Битрейт                                  : 1924 Кбит/сек
Ширина                                   : 1024 пикселя
Высота                                   : 428 пикселей
Соотношение сторон                       : 2,40:1
Режим частоты кадров                     : Постоянный
Частота кадров                           : 24,000 кадра/сек
Цветовое пространство                    : YUV
Субдискретизация насыщенности            : 4:2:0
Битовая глубина                          : 8 бит
Тип развёртки                            : Прогрессивная
Бит/(Пиксели*Кадры)                      : 0.183
Размер потока                            : 1,33 Гбайт (75%)
Библиотека кодирования                   : x264 core 146 r2538 121396c
Настройки программы                      : cabac=1 / ref=10 / deblock=1:-3:-3 / analyse=0x3:0x113 / me=umh / subme=11 / psy=1 / psy_rd=1.00:0.03 / mixed_ref=1 / me_range=48 / chroma_me=1 / trellis=2 / 8x8dct=1 / cqm=0 / deadzone=21,11 / fast_pskip=1 / chroma_qp_offset=-3 / threads=6 / lookahead_threads=1 / sliced_threads=0 / nr=0 / decimate=1 / interlaced=0 / bluray_compat=0 / constrained_intra=0 / bframes=11 / b_pyramid=2 / b_adapt=2 / b_bias=0 / direct=3 / weightb=1 / open_gop=0 / weightp=2 / keyint=240 / keyint_min=24 / scenecut=40 / intra_refresh=0 / rc_lookahead=40 / rc=2pass / mbtree=0 / bitrate=1924 / ratetol=1.0 / qcomp=0.60 / qpmin=0 / qpmax=69 / qpstep=4 / cplxblur=20.0 / qblur=0.5 / vbv_maxrate=50000 / vbv_bufsize=62500 / nal_hrd=none / filler=0 / ip_ratio=1.40 / pb_ratio=1.30 / aq=1:1.00
Язык                                     : English
Default                                  : Да
Forced                                   : Нет

Аудио #1
Идентификатор                            : 2
Формат                                   : AC-3
Формат/Информация                        : Audio Coding 3
Расширение режима                        : CM (complete main)
Параметр Endianness формата              : Big
Идентификатор кодека                     : A_AC3
Продолжительность                        : 1 ч. 39 м.
Вид битрейта                             : Постоянный
Битрейт                                  : 192 Кбит/сек
Каналы                                   : 2 канала
Расположение каналов                     : Front: L R
Частота                                  : 48,0 КГц
Частота кадров                           : 31,250 кадров/сек (1536 spf)
Битовая глубина                          : 16 бит
Метод сжатия                             : С потерями
Размер потока                            : 136 Мбайт (8%)
Заголовок                                : DVO [LakeFilms]
Язык                                     : Russian
Default                                  : Да
Forced                                   : Нет

Аудио #2
Идентификатор                            : 3
Формат                                   : AC-3
Формат/Информация                        : Audio Coding 3
Расширение режима                        : CM (complete main)
Параметр Endianness формата              : Big
Идентификатор кодека                     : A_AC3
Продолжительность                        : 1 ч. 38 м.
Вид битрейта                             : Постоянный
Битрейт                                  : 448 Кбит/сек
Каналы                                   : 6 каналов
Расположение каналов                     : Front: L C R, Side: L R, LFE
Частота                                  : 48,0 КГц
Частота кадров                           : 31,250 кадров/сек (1536 spf)
Битовая глубина                          : 16 бит
Метод сжатия                             : С потерями
Размер потока                            : 317 Мбайт (17%)
Заголовок                                : [Original]
Язык                                     : English
Default                                  : Нет
Forced                                   : Нет

Текст
Идентификатор                            : 4
Формат                                   : UTF-8
Идентификатор кодека                     : S_TEXT/UTF8
Идентификатор кодека/Информация          : UTF-8 Plain Text
Продолжительность                        : 1 ч. 31 м.
Битрейт                                  : 31 бит/сек
Count of elements                        : 716
Размер потока                            : 21,2 Кбайт (0%)
Заголовок                                : Full
Язык                                     : English
Default                                  : Нет
Forced                                   : Нет

Меню
00:00:00.000                             : en:Chapter 00
00:05:47.541                             : en:Chapter 01
00:14:31.833                             : en:Chapter 02
00:19:04.166                             : en:Chapter 03
00:27:02.500                             : en:Chapter 04
00:40:19.500                             : en:Chapter 05
00:49:19.041                             : en:Chapter 06
00:55:17.041                             : en:Chapter 07
01:04:08.083                             : en:Chapter 08
01:10:33.416                             : en:Chapter 09
01:19:37.291                             : en:Chapter 10
01:34:00.791                             : en:Chapter 11



Скриншоты:
[+] Всего файлов в раздаче - 1:
Lancaster.Skies.2019.BDRip(AVC).OllanDGroup.mkv1.77 GB

Похожие раздачи по запросу - небеса:
2019-05-30 U Небеса Ланкастера / Lancaster Skies (2019) WEBRip 1080p | LakeFilms 1.66 GB ↑ 81 ↓ 22
2018-03-14 U Кардинал Ришелье. Небеса могут подождать... / Le cardinal de Richelieu : le ciel peut attendre... (2010) SATRip от Pshichko66 1.47 GB ↑ 370 ↓ 38

Отзывы
Зарегистрируйтесь чтобы добавить комментарий.
Обратная связь
Copyleft ©