↑↓Torrent.by
Поиск
Логин: Регистрация
Пароль: Восстановить пароль
Загрузка...

Голышом / Naked (2017) WEB-DL 1080p | L

Скачать golyshom-naked-2017-web-dl-1080p-l.torrent
U Магнитная ссылка Размер: 3.99 GB Раздают: 53 Качают: 20 Добавлен: 2019-09-10 17:55:53
Голышом / Naked (2017) WEB-DL 1080p | L

Название: Голышом
Оригинальное название: Naked
Год выхода: 2017
Жанр: Комедия
Режиссер: Майкл Тиддес
В ролях: Реджина Холл, Марлон Уайанс, Нил Браун мл., Деннис Хейсбёрт, Лоретта Дивайн, Дейв Шеридан, Кори Хардрикт, Жуль Хевн, Джейсон Дэвис, Джондэйс Кэндес

О фильме:
День свадьбы Роба Андерсона превращается в «день сурка», который будет повторяться снова и снова, пока злополучный жених не доберётся до венца. Проблема в том, что каждый раз Роб просыпается на полу лифта, без одежды и в беспамятстве, а до свадьбы остаётся всего час...

Страна: США
Студия: Wayans / Alvarez Productions
Продолжительность: 01:36:52
Перевод: Любительский многоголосый

Файл
Кодек: AVC
Качество: WEB-DL 1080p | Naked.2017.1080p.NF.WEB-DL.DDP5.1.x264-QOQ
Видео: MPEG-4 AVC, 4640 Kбит/с, 1920x1080, 23.976 кадр/с
Звук: Без Рекламы!
Аудио #1: Русский (АС3, 2 ch, 256 Кбит/с, 48.0 KHz) Любительский (многоголосый, закадровый) Shiza Project
Аудио #2: Русский (АС3, 2 ch, 192 Кбит/с, 48.0 KHz) Любительский (многоголосый, закадровый) RusFilm
Аудио #3: Русский (АС3, 2 ch, 192 Кбит/с, 48.0 KHz) Любительский (многоголосый, закадровый) MUZOBOZ
Аудио #4: Английский (E-АС3, 6 ch, 640 Кбит/с, 48.0 KHz)
Субтитры: Русские , английские, испанские, французские, немецкие, итальянские | Нетфликс
Трейлер




[+] MediaInfo
Источник: Naked.2017.1080p.NF.WEB-DL.DDP5.1.x264-QOQ
General
Unique ID                      : 208399737632574987430005758540522998873 (0x9CC8545AD393A1AF8DF375252D244C59)
Complete name                  : Naked.2017.NF.WEB-DL.1080p.mkv
Format                         : Matroska
Format version                 : Version 4
File size                      : 3.99 GiB
Duration                       : 1 h 36 min
Overall bit rate mode          : Variable
Overall bit rate               : 5 901 kb/s
Encoded date                   : UTC 2019-09-09 16:31:55
Writing application            : mkvmerge v7.1.0 ('Good Love') 64bit built on Jul 27 2014 13:06:55
Writing library                : libebml v1.3.0 + libmatroska v1.4.1

Video
ID                             : 1
Format                         : AVC
Format/Info                    : Advanced Video Codec
Format profile                 : Main@L4
Format settings                : CABAC / 3 Ref Frames
Format settings, CABAC         : Yes
Format settings, Reference fra : 3 frames
Codec ID                       : V_MPEG4/ISO/AVC
Duration                       : 1 h 36 min
Bit rate mode                  : Variable
Bit rate                       : 4 640 kb/s
Maximum bit rate               : 6 960 kb/s
Width                          : 1 920 pixels
Height                         : 1 080 pixels
Display aspect ratio           : 16:9
Frame rate mode                : Constant
Frame rate                     : 23.976 (24000/1001) FPS
Color space                    : YUV
Chroma subsampling             : 4:2:0
Bit depth                      : 8 bits
Scan type                      : Progressive
Bits/(Pixel*Frame)             : 0.093
Stream size                    : 3.12 GiB (78%)
Writing library                : x264 core 148 r2715 7e75228
Encoding settings              : cabac=1 / ref=3 / deblock=1:0:0 / analyse=0x1:0x111 / me=umh / subme=10 / psy=1 / psy_rd=1.00:0.00 / mixed_ref=1 / me_range=24 / chroma_me=1 / trellis=2 / 8x8dct=0 / cqm=0 / deadzone=21,11 / fast_pskip=1 / chroma_qp_offset=-2 / threads=8 / lookahead_threads=1 / sliced_threads=0 / nr=0 / decimate=1 / interlaced=0 / bluray_compat=0 / stitchable=1 / constrained_intra=0 / bframes=2 / b_pyramid=0 / b_adapt=2 / b_bias=0 / direct=3 / weightb=1 / open_gop=0 / weightp=2 / keyint=48 / keyint_min=25 / scenecut=0 / intra_refresh=0 / rc_lookahead=48 / rc=2pass / mbtree=1 / bitrate=4640 / ratetol=1.0 / qcomp=0.50 / qpmin=6 / qpmax=51 / qpstep=4 / cplxblur=20.0 / qblur=0.5 / vbv_maxrate=6960 / vbv_bufsize=9280 / nal_hrd=vbr / filler=0 / ip_ratio=1.40 / aq=1:1.00
Language                       : English
Default                        : Yes
Forced                         : No

Audio #1
ID                             : 2
Format                         : AC-3
Format/Info                    : Audio Coding 3
Commercial name                : Dolby Digital
Codec ID                       : A_AC3
Duration                       : 1 h 36 min
Bit rate mode                  : Constant
Bit rate                       : 256 kb/s
Channel(s)                     : 2 channels
Channel layout                 : L R
Sampling rate                  : 48.0 kHz
Frame rate                     : 31.250 FPS (1536 SPF)
Bit depth                      : 16 bits
Compression mode               : Lossy
Stream size                    : 177 MiB (4%)
Title                          : SHIZA Project
Language                       : Russian
Service kind                   : Complete Main
Default                        : Yes
Forced                         : No

Audio #2
ID                             : 3
Format                         : AC-3
Format/Info                    : Audio Coding 3
Commercial name                : Dolby Digital
Codec ID                       : A_AC3
Duration                       : 1 h 36 min
Bit rate mode                  : Constant
Bit rate                       : 192 kb/s
Channel(s)                     : 2 channels
Channel layout                 : L R
Sampling rate                  : 48.0 kHz
Frame rate                     : 31.250 FPS (1536 SPF)
Bit depth                      : 16 bits
Compression mode               : Lossy
Stream size                    : 133 MiB (3%)
Title                          : RusFilm
Language                       : Russian
Service kind                   : Complete Main
Default                        : No
Forced                         : No

Audio #3
ID                             : 4
Format                         : AC-3
Format/Info                    : Audio Coding 3
Commercial name                : Dolby Digital
Codec ID                       : A_AC3
Duration                       : 1 h 36 min
Bit rate mode                  : Constant
Bit rate                       : 192 kb/s
Channel(s)                     : 2 channels
Channel layout                 : L R
Sampling rate                  : 48.0 kHz
Frame rate                     : 31.250 FPS (1536 SPF)
Bit depth                      : 16 bits
Compression mode               : Lossy
Stream size                    : 133 MiB (3%)
Title                          : MUZOBOZ
Language                       : Russian
Service kind                   : Complete Main
Default                        : No
Forced                         : No

Audio #4
ID                             : 5
Format                         : E-AC-3
Format/Info                    : Enhanced AC-3
Commercial name                : Dolby Digital Plus
Codec ID                       : A_EAC3
Duration                       : 1 h 36 min
Bit rate mode                  : Constant
Bit rate                       : 640 kb/s
Channel(s)                     : 6 channels
Channel layout                 : L R C LFE Ls Rs
Sampling rate                  : 48.0 kHz
Frame rate                     : 31.250 FPS (1536 SPF)
Compression mode               : Lossy
Stream size                    : 443 MiB (11%)
Title                          : English
Language                       : English
Service kind                   : Complete Main
Default                        : No
Forced                         : No

Text #1
ID                             : 6
Format                         : UTF-8
Codec ID                       : S_TEXT/UTF8
Codec ID/Info                  : UTF-8 Plain Text
Duration                       : 1 h 31 min
Bit rate                       : 94 b/s
Count of elements              : 1440
Stream size                    : 63.2 KiB (0%)
Language                       : Russian
Default                        : No
Forced                         : No

Text #2
ID                             : 7
Format                         : UTF-8
Codec ID                       : S_TEXT/UTF8
Codec ID/Info                  : UTF-8 Plain Text
Duration                       : 2 s 210 ms
Bit rate                       : 112 b/s
Count of elements              : 1
Stream size                    : 31.0 Bytes (0%)
Title                          : Forced
Language                       : English
Default                        : No
Forced                         : No

Text #3
ID                             : 8
Format                         : UTF-8
Codec ID                       : S_TEXT/UTF8
Codec ID/Info                  : UTF-8 Plain Text
Duration                       : 1 h 28 min
Bit rate                       : 80 b/s
Count of elements              : 1522
Stream size                    : 52.3 KiB (0%)
Language                       : English
Default                        : No
Forced                         : No

Text #4
ID                             : 9
Format                         : UTF-8
Codec ID                       : S_TEXT/UTF8
Codec ID/Info                  : UTF-8 Plain Text
Duration                       : 1 h 29 min
Bit rate                       : 86 b/s
Count of elements              : 1690
Stream size                    : 56.6 KiB (0%)
Title                          : SDH
Language                       : English
Default                        : No
Forced                         : No

Text #5
ID                             : 10
Format                         : UTF-8
Codec ID                       : S_TEXT/UTF8
Codec ID/Info                  : UTF-8 Plain Text
Duration                       : 1 h 36 min
Bit rate                       : 59 b/s
Count of elements              : 1397
Stream size                    : 42.1 KiB (0%)
Language                       : German
Default                        : No
Forced                         : No

Text #6
ID                             : 11
Format                         : UTF-8
Codec ID                       : S_TEXT/UTF8
Codec ID/Info                  : UTF-8 Plain Text
Duration                       : 1 h 31 min
Bit rate                       : 59 b/s
Count of elements              : 1362
Stream size                    : 40.0 KiB (0%)
Language                       : French
Default                        : No
Forced                         : No

Text #7
ID                             : 12
Format                         : UTF-8
Codec ID                       : S_TEXT/UTF8
Codec ID/Info                  : UTF-8 Plain Text
Duration                       : 1 h 31 min
Bit rate                       : 66 b/s
Count of elements              : 1441
Stream size                    : 44.7 KiB (0%)
Language                       : Italian
Default                        : No
Forced                         : No

Text #8
ID                             : 13
Format                         : UTF-8
Codec ID                       : S_TEXT/UTF8
Codec ID/Info                  : UTF-8 Plain Text
Duration                       : 1 h 31 min
Bit rate                       : 66 b/s
Count of elements              : 1410
Stream size                    : 44.5 KiB (0%)
Title                          : European
Language                       : Spanish
Default                        : No
Forced                         : No



Скриншоты:
[+] Всего файлов в раздаче - 1:
Naked.2017.NF.WEB-DL.1080p.mkv3.99 GB

Отзывы
Зарегистрируйтесь чтобы добавить комментарий.
Обратная связь
Copyleft ©