↑↓Torrent.by
Поиск
Логин: Регистрация
Пароль: Восстановить пароль
Загрузка...

National Geographic: Мумии, застывшие во времени / Mummies. Frozen in Time (2018) HDTV 1080i | P1

Скачать national-geographic-mumii-zastyvshie-vo-vremeni-mummies-frozen-in-time-2018-hdtv-1080i-p1.torrent
U Магнитная ссылка Размер: 2.08 GB Раздают: 0 Качают: 2 Добавлен: 2019-09-10 18:52:33

Информация о фильме
Название: Мумии, застывшие во времени
Оригинальное название: Mummies. Frozen in Time
Год выхода: 2018
Жанр: Документальный, история, исследования, мумии
Режиссер: Дэвид Шадрак Смит

О фильме:
В западных степях Китая одна примечательная находка поставила под вопрос существующую теорию происхождения китайской нации. В болотах северной Европы рабочие, занимавшиеся торфоразработками, наткнулись при раскопках на сотни хорошо сохранившихся мумий со следами страшных увечий. Среди них были обнаружены три прекрасно сохранившихся мумии детей, которых очевидно выбрали в качестве жертвоприношения богам, как это делали древние инки. В тропиках умерших родственников подвешивали в пещерах, чтобы у живущих была возможность навещать их и отдавать им почести. Каждая из этих уникальных и захватывающих историй является вехой в путешествии по истории эволюции человечества и напоминает нам о том, что в своей основе мы созданы из плоти и крови.
Страна: США
Студия: National Geographic Studios
Продолжительность: 00:42:25
Перевод: Профессиональный (одноголосый закадровый) Велес

Файл
Кодек: AVC/H.264
Качество: HDTV  1080i
Видео: 1920x1080 (16:9), 25 fps, AVC (H.264), High@L4, 6279 kbps, 25fps, 0.121 bit/pixel
Звук:
Русский 48 kHz, MPEG Layer 2, 2 ch, ~192.00 kbps avg
Английский 48 kHz, MPEG Layer 2, 2 ch, ~192.00 kbps avg

Семпл

[+] "MediaInfo"
Complete name               : F:НаладкиМумии_застывшие во времени.ts
Format                      : MPEG-TS
File size                   : 2.08 GiB
Duration                    : 42 min 25 s
Overall bit rate mode       : Variable
Overall bit rate            : 7 013 kb/s

Video
ID                          : 302 (0x12E)
Menu ID                     : 26002 (0x6592)
Format                      : AVC
Format/Info                 : Advanced Video Codec
Format profile              : High@L4
Format settings             : CABAC / 4 Ref Frames
Format settings, CABAC      : Yes
Format settings, Reference  : 4 frames
Codec ID                    : 27
Duration                    : 42 min 25 s
Bit rate                    : 6 279 kb/s
Width                       : 1 920 pixels
Height                      : 1 080 pixels
Display aspect ratio        : 16:9
Frame rate                  : 25.000 FPS
Standard                    : Component
Color space                 : YUV
Chroma subsampling          : 4:2:0
Bit depth                   : 8 bits
Scan type                   : Interlaced
Scan type, store method     : Separated fields
Scan order                  : Top Field First
Bits/(Pixel*Frame)          : 0.121
Stream size                 : 1.86 GiB (90%)
Color range                 : Limited
Color primaries             : BT.709
Transfer characteristics    : BT.709
Matrix coefficients         : BT.709

Audio #1
ID                          : 402 (0x192)
Menu ID                     : 26002 (0x6592)
Format                      : MPEG Audio
Format version              : Version 1
Format profile              : Layer 2
Codec ID                    : 3
Duration                    : 42 min 25 s
Bit rate mode               : Constant
Bit rate                    : 192 kb/s
Channel(s)                  : 2 channels
Sampling rate               : 48.0 kHz
Frame rate                  : 41.667 FPS (1152 SPF)
Compression mode            : Lossy
Stream size                 : 58.3 MiB (3%)
Language                    : Russian

Audio #2
ID                          : 403 (0x193)
Menu ID                     : 26002 (0x6592)
Format                      : MPEG Audio
Format version              : Version 1
Format profile              : Layer 2
Codec ID                    : 3
Duration                    : 42 min 25 s
Bit rate mode               : Constant
Bit rate                    : 192 kb/s
Channel(s)                  : 2 channels
Sampling rate               : 48.0 kHz
Frame rate                  : 41.667 FPS (1152 SPF)
Compression mode            : Lossy
Stream size                 : 58.3 MiB (3%)
Language                    : English

[+] "Скриншоты"



Релиз от: kyba
[+] Всего файлов в раздаче - 1:
Мумии_застывшие во времени.ts2.08 GB

Похожие раздачи по запросу - national:
2019-09-10 U National Geographic: Потерянные мумии Новой Гвинеи / Mystery Mummies of New Guinea (2018) HDTV 1080i | P1 2.06 GB ↑ 0 ↓ 1
2017-11-08 U National Geographic: Через миллион лет / Year Million [S01] (2017) HDTVRip от Kaztorrents | P1 4.14 GB ↑ 376 ↓ 54

Отзывы
Зарегистрируйтесь чтобы добавить комментарий.
Обратная связь
Copyleft ©