↑↓Torrent.by
Поиск
Логин: Регистрация
Пароль: Восстановить пароль
Загрузка...

National Geographic: Потерянные мумии Новой Гвинеи / Mystery Mummies of New Guinea (2018) HDTV 1080i | P1

Скачать national-geographic-poteryannye-mumii-novoy-gvinei-mystery-mummies-of-new-guinea-2018-hdtv-1080i-p1.torrent
U Магнитная ссылка Размер: 2.06 GB Раздают: 0 Качают: 1 Добавлен: 2019-09-10 18:53:53

Информация о фильме
Название: Потерянные мумии Новой Гвинеи
Оригинальное название: Mystery Mummies of New Guinea
Год выхода: 2018
Жанр: Документальный, история, исследования, мумии
Режиссер: Джон Рубин

О фильме:
Высоко в скалах, окружающих территорию, на которой живет племя Кок в Папуа-Новой Гвинее, располагаются галереи, сооруженные их предками. Подвешенные в них на цепях мумии смотрят прямо на деревню. Они сохранены на века, чтобы их навещали и отдавали им почести. С 50-х годов, когда в этот регион стали заезжать миссионеры, ритуал мумификации умерших родственников был запрещен. Старейшина общины, Гемтазу, захотел изменить этот порядок. Он не захотел быть похороненным в земле, после чего его никто уже больше не увидит. Когда пришло время умирать, он завещал своим родственникам мумифицировать его так, как он сделал это со своим отцом. Руководитель экспедиции и фотограф Улла Ломан присутствовали при этом обряде и смогли его задокументировать, чтобы сделать это событие достоянием всего человечества.
Страна: США
Студия: JOHN RUBIN PRODUCTIONS, National Geographic Studios
Продолжительность: 00:38:32
Перевод: Профессиональный (одноголосый закадровый) Велес

Файл
Кодек: AVC/H.264
Качество: HDTV  1080i
Видео: 1920x1080 (16:9), 25 fps, AVC (H.264), High@L4, 6885 kbps, 25fps, 0.133 bit/pixel
Звук:
Русский 48 kHz, MPEG Layer 2, 2 ch, ~192.00 kbps avg
Английский 48 kHz, MPEG Layer 2, 2 ch, ~192.00 kbps avg

Семпл

[+] "MediaInfo"
Complete name               : F:НаладкиПотерянные мумии Новой Гвинеи.ts
Format                      : MPEG-TS
File size                   : 2.06 GiB
Duration                    : 38 min 32 s
Overall bit rate mode       : Variable
Overall bit rate            : 7 651 kb/s

Video
ID                          : 302 (0x12E)
Menu ID                     : 26002 (0x6592)
Format                      : AVC
Format/Info                 : Advanced Video Codec
Format profile              : High@L4
Format settings             : CABAC / 4 Ref Frames
Format settings, CABAC      : Yes
Format settings, Reference  : 4 frames
Format settings, GOP        : M=4, N=28
Codec ID                    : 27
Duration                    : 38 min 32 s
Bit rate                    : 6 885 kb/s
Width                       : 1 920 pixels
Height                      : 1 080 pixels
Display aspect ratio        : 16:9
Frame rate                  : 25.000 FPS
Standard                    : Component
Color space                 : YUV
Chroma subsampling          : 4:2:0
Bit depth                   : 8 bits
Scan type                   : Interlaced
Scan type, store method     : Separated fields
Scan order                  : Top Field First
Bits/(Pixel*Frame)          : 0.133
Stream size                 : 1.85 GiB (90%)
Color range                 : Limited
Color primaries             : BT.709
Transfer characteristics    : BT.709
Matrix coefficients         : BT.709

Audio #1
ID                          : 402 (0x192)
Menu ID                     : 26002 (0x6592)
Format                      : MPEG Audio
Format version              : Version 1
Format profile              : Layer 2
Codec ID                    : 3
Duration                    : 38 min 32 s
Bit rate mode               : Constant
Bit rate                    : 192 kb/s
Channel(s)                  : 2 channels
Sampling rate               : 48.0 kHz
Frame rate                  : 41.667 FPS (1152 SPF)
Compression mode            : Lossy
Stream size                 : 52.9 MiB (3%)
Language                    : Russian

Audio #2
ID                          : 403 (0x193)
Menu ID                     : 26002 (0x6592)
Format                      : MPEG Audio
Format version              : Version 1
Format profile              : Layer 2
Codec ID                    : 3
Duration                    : 38 min 32 s
Bit rate mode               : Constant
Bit rate                    : 192 kb/s
Channel(s)                  : 2 channels
Sampling rate               : 48.0 kHz
Frame rate                  : 41.667 FPS (1152 SPF)
Compression mode            : Lossy
Stream size                 : 52.9 MiB (3%)
Language                    : English

[+] "Скриншоты"



Релиз от: kyba
[+] Всего файлов в раздаче - 1:
Потерянные мумии Новой Гвинеи.ts2.06 GB

Похожие раздачи по запросу - national:
2019-09-10 U National Geographic: Мумии, застывшие во времени / Mummies. Frozen in Time (2018) HDTV 1080i | P1 2.08 GB ↑ 0 ↓ 2
2017-11-08 U National Geographic: Через миллион лет / Year Million [S01] (2017) HDTVRip от Kaztorrents | P1 4.14 GB ↑ 376 ↓ 54

Отзывы
Зарегистрируйтесь чтобы добавить комментарий.
Обратная связь
Copyleft ©