↑↓Torrent.by
Поиск
Логин: Регистрация
Пароль: Восстановить пароль
Загрузка...

Добро пожаловать в Рим / Как кошка на дороге / Come un gatto in tangenziale (2017) WEB-DL 1080p | P | iTunes

Скачать dobro-pozhalovat-v-rim-kak-koshka-na-doroge-come-un-gatto-in-tangenziale-2017-web-dl-1080p-p-itunes.torrent
U Магнитная ссылка Размер: 6.45 GB Раздают: 103 Качают: 55 Добавлен: 2019-09-10 20:35:46
Добро пожаловать в Рим / Как кошка на дороге / Come un gatto in tangenziale (2017) WEB-DL 1080p | P | iTunes

Название: Добро пожаловать в Рим / Как кошка на дороге
Оригинальное название: Come un gatto in tangenziale
Год выхода: 2017
Жанр: Комедия
Режиссер: Риккардо Милани
В ролях: Паола Кортеллези, Антонио Альбанезе, Соня Бергамаско, Лука Анджелетти, Антонио Д’Осилио, Аличе Мазелли, Симоне де Бьянки, Клаудио Амендола, Николь Бионди, Джорджия Кальдерони, Сильвия Коэн, Джулия Греко, Мехди Хашеми, Неле Хардиман, Патриция Лорети

О фильме:
Джованни - респектабельный глава аналитического центра - возвращается в Рим из командировки и с ужасом узнаёт, что его единственная и горячо любимая 13-летняя дочь Агнеса встречается с Алессио - подростком из бедного пригорода. Чтобы убедить молодых людей, что они не пара, ему придётся заручиться поддержкой Моники — матери Алессио, женщины со взрывным характером и своими представлениями о социальной справедливости.

Страна: Италия
Студия: Wildside Media
Продолжительность: 01:39:52
Перевод: Профессиональный многоголосый | iTunes

Файл
Кодек: x.264
Качество: WEB-DL 1080p
Видео: MPEG-4 AVC, 8219 Kбит/с, 1920x804, 23.976 кадр/с
Звук: ► Без Рекламы!
Аудио #1: Русский (АС3, 6 ch, 384 Кбит/с, 48.0 KHz) Профессиональный (многоголосый, закадровый) iTunes
Аудио #2: Итальянский (АС3, 6 ch, 640 Кбит/с, 48.0 KHz)
Субтитры: Русские (форсированные), итальянские
Трейлер




[+] MediaInfo
General
Unique ID                      : 253595332421458449707284214983823984635 (0xBEC8AF37E6AAADEDBAE8F25CF07807FB)
Complete name                  : Come.Un.Gatto.In.Tangenziale.2017.WEB-DL.1080p.mkv
Format                         : Matroska
Format version                 : Version 4
File size                      : 6.45 GiB
Duration                       : 1 h 39 min
Overall bit rate               : 9 245 kb/s
Encoded date                   : UTC 2019-09-10 10:34:20
Writing application            : mkvmerge v7.1.0 ('Good Love') 64bit built on Jul 27 2014 13:06:55
Writing library                : libebml v1.3.0 + libmatroska v1.4.1

Video
ID                             : 1
Format                         : AVC
Format/Info                    : Advanced Video Codec
Format profile                 : High@L4.1
Format settings                : CABAC / 3 Ref Frames
Format settings, CABAC         : Yes
Format settings, Reference fra : 3 frames
Codec ID                       : V_MPEG4/ISO/AVC
Duration                       : 1 h 39 min
Bit rate                       : 8 219 kb/s
Width                          : 1 920 pixels
Height                         : 804 pixels
Display aspect ratio           : 2.40:1
Frame rate mode                : Constant
Frame rate                     : 23.976 (23976/1000) FPS
Original frame rate            : 23.976 (24000/1001) FPS
Color space                    : YUV
Chroma subsampling             : 4:2:0
Bit depth                      : 8 bits
Scan type                      : Progressive
Bits/(Pixel*Frame)             : 0.222
Stream size                    : 5.73 GiB (89%)
Default                        : Yes
Forced                         : No
Color range                    : Limited
Color primaries                : BT.709
Transfer characteristics       : BT.709
Matrix coefficients            : BT.709

Audio #1
ID                             : 2
Format                         : AC-3
Format/Info                    : Audio Coding 3
Commercial name                : Dolby Digital
Codec ID                       : A_AC3
Duration                       : 1 h 39 min
Bit rate mode                  : Constant
Bit rate                       : 384 kb/s
Channel(s)                     : 6 channels
Channel layout                 : L R C LFE Ls Rs
Sampling rate                  : 48.0 kHz
Frame rate                     : 31.250 FPS (1536 SPF)
Bit depth                      : 16 bits
Compression mode               : Lossy
Delay relative to video        : -200 ms
Stream size                    : 274 MiB (4%)
Title                          : MVO | iTunes
Language                       : Russian
Service kind                   : Complete Main
Default                        : Yes
Forced                         : No

Audio #2
ID                             : 3
Format                         : AC-3
Format/Info                    : Audio Coding 3
Commercial name                : Dolby Digital
Codec ID                       : A_AC3
Duration                       : 1 h 39 min
Bit rate mode                  : Constant
Bit rate                       : 640 kb/s
Channel(s)                     : 6 channels
Channel layout                 : L R C LFE Ls Rs
Sampling rate                  : 48.0 kHz
Frame rate                     : 31.250 FPS (1536 SPF)
Bit depth                      : 16 bits
Compression mode               : Lossy
Stream size                    : 457 MiB (7%)
Language                       : Italian
Service kind                   : Complete Main
Default                        : No
Forced                         : No

Text #1
ID                             : 4
Format                         : UTF-8
Codec ID                       : S_TEXT/UTF8
Codec ID/Info                  : UTF-8 Plain Text
Duration                       : 1 h 34 min
Bit rate                       : 5 b/s
Count of elements              : 36
Stream size                    : 3.94 KiB (0%)
Title                          : forced
Language                       : Russian
Default                        : Yes
Forced                         : No

Text #2
ID                             : 5
Format                         : UTF-8
Codec ID                       : S_TEXT/UTF8
Codec ID/Info                  : UTF-8 Plain Text
Duration                       : 1 h 37 min
Bit rate                       : 60 b/s
Count of elements              : 1080
Stream size                    : 43.1 KiB (0%)
Language                       : Italian
Default                        : No
Forced                         : No

Menu
00:00:00.000                   : en:(01)00:00:00:000
00:08:26.506                   : en:(02)00:08:26:506
00:21:55.314                   : en:(03)00:21:55:314
00:34:17.055                   : en:(04)00:34:17:055
00:54:48.285                   : en:(05)00:54:48:285
01:03:15.792                   : en:(06)01:03:15:792
01:14:12.448                   : en:(07)01:14:12:448
01:25:38.133                   : en:(08)01:25:38:133



Скриншоты:
[+] Всего файлов в раздаче - 1:
Come.Un.Gatto.In.Tangenziale.2017.WEB-DL.1080p.mkv6.45 GB

Похожие раздачи по запросу - добро:
2019-09-10 U Добро пожаловать в Рим / Как кошка на дороге / Come un gatto in tangenziale (2017) WEB-DLRip | iTunes 1.46 GB ↑ 51 ↓ 28
2019-09-05 U Добро пожаловать, или Посторонним вход воспрещен (1964) BDRip [H.264] [Реставрация КП] 3.42 GB ↑ 4 ↓ 2
2019-08-21 U Добро пожаловать в Акапулько / Welcome to Acapulco (2019) BDRip-AVC от OlLanDGroup | D 1.75 GB ↑ 28 ↓ 14
2019-08-20 U Добро пожаловать в Акапулько / Welcome to Acapulco (2019) BDRip | Лицензия 1.46 GB ↑ 66 ↓ 43
2019-04-09 U Добро пожаловать в Акапулько / Welcome to Acapulco (2019) WEB-DLRip от ExKinoRay | HDRezka Studio 1.37 GB ↑ 203 ↓ 73
2018-07-30 U Добро пожаловать в Zомбилэнд / Zombieland (2009) WEB-DL 1080p | D, A | Open Matte 2К9.51 GB ↑ 298 ↓ 8

Отзывы
Зарегистрируйтесь чтобы добавить комментарий.
Обратная связь
Copyleft ©