↑↓Torrent.by
Поиск
Логин: Регистрация
Пароль: Восстановить пароль
Загрузка...

Жуки [01-08 из 16] (2019) HDTVRip от GeneralFilm

Скачать zhuki-01-08-iz-16-2019-hdtvrip-ot-generalfilm.torrent
U Магнитная ссылка Размер: 2.18 GB Раздают: 114 Качают: 349 Добавлен: 2019-09-11 07:10:16
Жуки [01-08 из 16] (2019) HDTVRip от GeneralFilm

Оригинальное название: Жуки
Год выпуска: 2019
Жанр:  Комедия
Выпущено: Россия, Comedy Club Production
Режиссер: Константин Смирнов
В ролях: Вячеслав Чепурченко, Вадим Дубровин, Павел Комаров (II), Максим Лагашкин, Анастасия Акатова, Дмитрий Радонов, Валерий Новиков, Александр Робак, Владимир Епифанцев, Игорь Верник, Анатолий Журавлёв

О фильме: Никита, Дэн и Артемий разработали уникальное приложение для смартфонов, вот-вот продадут его и осуществят все свои мечты. Но в последний момент многомиллионная сделка срывается и парней забирают в армию. Чтобы не ставить под угрозу успех своего стартапа, они выбирают альтернативную службу в глухой деревне Жуки, где будут пытаться довести свой проект до конца. Только не так просто разрабатывать приложение там, где нет даже интернета…

Качество: HDTVRip
Видео: XviD build 73, 720x400 (16:9), 25.000 fps, ~ 1400 Kbps (~ 0.195 bit/pixel)
Аудио: 48.0 kHz, AC3, 2/0 ch, 192 kbps
Продолжительность: 8 х ~ 00:25:00
Перевод: Не требуется [Русский]
Cубтитры: нет

Релиз:


[+] MediaInfo
General
Complete name               : D:RazdachiZhuki.2019.HDTVRip.GeneralFilmZhuki.s01.e01.avi
Format                      : AVI
Format/Info                 : Audio Video Interleave
File size                   : 278 MiB
Duration                    : 24 min 18 s
Overall bit rate            : 1 601 kb/s
Writing application         : VirtualDubMod 1.5.10.3 | www.virtualdub-fr.org || (build 2550/release)
Writing library             : VirtualDubMod build 2550/release

Video
ID                          : 0
Format                      : MPEG-4 Visual
Format profile              : Advanced Simple@L5
Format settings             : BVOP1 / Custom Matrix
Format settings, BVOP       : 1
Format settings, QPel       : No
Format settings, GMC        : No warppoints
Format settings, Matrix     : Custom
Codec ID                    : XVID
Codec ID/Hint               : XviD
Duration                    : 24 min 18 s
Bit rate                    : 1 400 kb/s
Width                       : 720 pixels
Height                      : 400 pixels
Display aspect ratio        : 16:9
Frame rate                  : 25.000 FPS
Color space                 : YUV
Chroma subsampling          : 4:2:0
Bit depth                   : 8 bits
Scan type                   : Progressive
Compression mode            : Lossy
Bits/(Pixel*Frame)          : 0.194
Stream size                 : 243 MiB (87%)
Writing library             : XviD 73

Audio
ID                          : 1
Format                      : AC-3
Format/Info                 : Audio Coding 3
Commercial name             : Dolby Digital
Codec ID                    : 2000
Duration                    : 24 min 18 s
Bit rate mode               : Constant
Bit rate                    : 192 kb/s
Channel(s)                  : 2 channels
Channel layout              : L R
Sampling rate               : 48.0 kHz
Frame rate                  : 31.250 FPS (1536 SPF)
Bit depth                   : 16 bits
Compression mode            : Lossy
Stream size                 : 33.4 MiB (12%)
Alignment                   : Split accross interleaves
Interleave, duration        : 40  ms (1.00 video frame)
Interleave, preload duratio : 500  ms
Service kind                : Complete Main



Скриншоты:
[+] Всего файлов в раздаче - 8:
Zhuki.s01.e01.avi278.49 MB
Zhuki.s01.e02.avi278.49 MB
Zhuki.s01.e03.avi278.67 MB
Zhuki.s01.e04.avi278.76 MB
Zhuki.s01.e05.avi278.52 MB
Zhuki.s01.e06.avi278.59 MB
Zhuki.s01.e07.avi278.46 MB
Zhuki.s01.e08.avi278.70 MB

Показать еще раздачи по запросу жуки:
Сегодня U Жуки [01-10 из 16] (2019) WEBRip-AVC от GeneralFilm 2.92 GB ↑ 56 ↓ 65
Вчера U Жуки [01-10 из 16] (2019) HDTV 1080p от GeneralFilm 10.07 GB ↑ 90 ↓ 116
2019-09-13 U Жуки [01-10 из 16] (2019) WEBRip от Files-x 2.88 GB ↑ 56 ↓ 173
2019-09-13 U Жуки [01-10 из 16] (2019) HDTV 1080i от ExKinoRay 9.56 GB ↑ 66 ↓ 165
2019-09-13 U Жуки [01-10 из 16] (2019) WEBRip 2.93 GB ↑ 93 ↓ 226
2019-09-13 U Жуки [01-10 из 16] (2019) HDTVRip от GeneralFilm 2.72 GB ↑ 99 ↓ 270
2019-09-13 U Жуки [01-10 из 16] (2019) WEBRip 720p от ExKinoRay 4.47 GB ↑ 144 ↓ 414

Отзывы
Зарегистрируйтесь чтобы добавить комментарий.
Обратная связь
Copyleft ©