↑↓Torrent.by
Поиск
Логин: Регистрация
Пароль: Восстановить пароль
Загрузка...

Дипломат [01-12 из 16] (2019) HDTVRip от GeneralFilm

Скачать diplomat-01-12-iz-16-2019-hdtvrip-ot-generalfilm.torrent
U Магнитная ссылка Размер: 7.41 GB Раздают: 11 Качают: 48 Добавлен: 2019-09-11 07:11:17
Дипломат [01-12 из 16] (2019) HDTVRip от GeneralFilm

Год выпуска: 2019
Жанр:  Комедия
Выпущено: Россия, ООО «Студия Русский проект», ООО «Красный квадрат»
Режиссер: Юрий Кузьменко
В ролях: Александр Лазарев (младший), Светлана Немоляева, Полина Кутепова, Яна Сексте, Александр Адабашьян, Алика Смехова, Анна Легчилова, Алла Криницына, Анна Старшенбаум, Екатерина Семёнова, Александр Андриенко, Юлия Полынская, Наталья Иванова-Фенкина, Серафима Красникова, Софья Евстигнеева, Павел Кузьмин, Игорь Ясулович, Виктория Романенко, Владимир Гуськов (II), Полина Лазарева, Вячеслав Чепурченко, Павел Табаков, Сергей Годин, Вилле Хаапасало, Александр Домогаров (младший)

О фильме: Когда-то перед потомственным молодым дипломатом Лучниковым был распахнут весь мир, но жизнь внесла свои коррективы. Теперь весь свой дипломатический опыт Лучников применяет в многоходовых любовных комбинациях. Вконец изовравшись, Лучников решает начать жить с чистого листа. Но удастся ли ему это?

Качество: HDTVRip
Видео: XviD, ~ 1600 Кбит/с, 720х400, 25 кадр/с
Аудио: Русский (AC3, 2 ch, 192 Кбит/с)
Продолжительность: 12 х ~ 00:50:00
Перевод: Не требуется
Субтитры: нет

Релиз:


[+] MediaInfo

Общее
Полное имя                               : D:Diplomat.HDTVRip.GeneralFilm1.Diplomat.HDTVRip.GeneralFilm.avi
Формат                                   : AVI
Формат/Информация                        : Audio Video Interleave
Размер файла                             : 616 Мбайт
Продолжительность                        : 48 м. 9 с.
Общий поток                              : 1790 Кбит/сек
Программа кодирования                    : VirtualDubMod 1.5.10.3 | www.virtualdub-fr.org || (build 2550/release)
Библиотека кодирования                   : VirtualDubMod build 2550/release

Видео
Идентификатор                            : 0
Формат                                   : MPEG-4 Visual
Профиль формата                          : Advanced Simple@L5
Параметр BVOP формата                    : 1
Параметр QPel формата                    : Нет
Параметр GMC формата                     : Без точки перехода
Параметр матрицы формата                 : Выборочная
Идентификатор кодека                     : XVID
Идентификатор кодека/Подсказка           : XviD
Продолжительность                        : 48 м. 9 с.
Битрейт                                  : 1588 Кбит/сек
Ширина                                   : 720 пикселей
Высота                                   : 400 пикселей
Соотношение сторон                       : 16:9
Частота кадров                           : 25,000 кадров/сек
Цветовое пространство                    : YUV
Субдискретизация насыщенности            : 4:2:0
Битовая глубина                          : 8 бит
Тип развёртки                            : Прогрессивная
Метод сжатия                             : С потерями
Бит/(Пиксели*Кадры)                      : 0.221
Размер потока                            : 547 Мбайт (89%)
Библиотека кодирования                   : XviD 1.2.1 (UTC 2008-12-04)

Аудио
Идентификатор                            : 1
Формат                                   : AC-3
Формат/Информация                        : Audio Coding 3
Расширение режима                        : CM (complete main)
Параметр Endianness формата              : Big
Идентификатор кодека                     : 2000
Продолжительность                        : 48 м. 9 с.
Вид битрейта                             : Постоянный
Битрейт                                  : 192 Кбит/сек
Каналы                                   : 2 канала
Расположение каналов                     : Front: L R
Частота                                  : 48,0 КГц
Частота кадров                           : 31,250 кадров/сек (1536 spf)
Битовая глубина                          : 16 бит
Метод сжатия                             : С потерями
Размер потока                            : 66,1 Мбайт (11%)
Выравнивание                             : Разделение по промежуткам
Продолжительность промежутка             : 40  мс. (1,00 видеокадр)
Время предзагрузки промежутка            : 500  мс.




Скриншоты:
[+] Всего файлов в раздаче - 12:
01.Diplomat.HDTVRip.GeneralFilm.avi616.45 MB
02.Diplomat.HDTVRip.GeneralFilm.avi650.57 MB
03.Diplomat.HDTVRip.GeneralFilm.avi650.79 MB
04.Diplomat.HDTVRip.GeneralFilm.avi617.65 MB
05.Diplomat.HDTVRip.GeneralFilm.avi633.52 MB
06.Diplomat.HDTVRip.GeneralFilm.avi633.81 MB
07.Diplomat.HDTVRip.GeneralFilm.avi636.44 MB
08.Diplomat.HDTVRip.GeneralFilm.avi615.98 MB
09.Diplomat.HDTVRip.GeneralFilm.avi634.26 MB
10.Diplomat.HDTVRip.GeneralFilm.avi630.59 MB
11.Diplomat.HDTVRip.GeneralFilm.avi630.78 MB
12.Diplomat.HDTVRip.GeneralFilm.avi635.32 MB

Показать еще раздачи по запросу дипломат:
2019-09-15 U Дипломат [01-16 из 16] (2019) HDTVRip 720p от GeneralFilm 20.41 GB ↑ 50 ↓ 52
2019-09-13 U Дипломат [01-16 из 16] (2019) HDTVRip от GeneralFilm 9.85 GB ↑ 63 ↓ 141
2019-09-13 U Дипломат [01-16 из 16] (2019) SATRip 10.10 GB ↑ 60 ↓ 102
2019-09-12 U Дипломат [01х01-16 из 16] (2018) SATRip-AVC 9.35 GB ↑ 10 ↓ 3
2019-09-06 U Дипломат [01-10 из 16] (2019) SATRip 6.32 GB ↑ 99 ↓ 113
2019-09-05 U Дипломат [01-07 из 16] (2019) SATRip 4.46 GB ↑ 47 ↓ 129
2019-09-03 U Дипломат [01-02 из 16] (2019) HDTVRip от GeneralFilm 1.24 GB ↑ 35 ↓ 17

Отзывы
Зарегистрируйтесь чтобы добавить комментарий.
Обратная связь
Copyleft ©