↑↓Torrent.by
Поиск
Логин: Регистрация
Пароль: Восстановить пароль
Загрузка...

Захватчик ЗИМ: Пришествие Флорпуса / Invader ZIM: Enter the Florpus (2019) WEB-DL 1080p | VPStudio

Скачать zahvatchik-zim-prishestvie-florpusa-invader-enter-the-florpus-2019-web-dl-1080p-vpstudio.torrent
U Магнитная ссылка Размер: 2.61 GB Раздают: 21 Качают: 5 Добавлен: 2019-09-11 07:11:44
Захватчик ЗИМ: Пришествие Флорпуса / Invader ZIM: Enter the Florpus (2019) WEB-DL 1080p | VPStudio

Название: Захватчик ЗИМ: Пришествие Флорпуса
Оригинальное название: Invader ZIM: Enter the Florpus
Год выхода: 2019
Жанр: Мультфильм, фантастика, боевик, комедия, приключения
Режиссер: Пак Ён-гюн, Хонен Васкес
В ролях: Оливия д’Або, Пол Гринберг, Кевин Макдональд, Ричард Стивен Хорвиц, Роджер Бампасс, Энди Берман, Мелисса Чарльз, Уолли Вингерт, Хонен Васкес, Росеарик Рикки Саймонс

О фильме:
Зим — амбициозный представитель расы Иркен, отправленный на Землю якобы за полезной информацией для подготовки планеты к захвату империей Иркен. По крайней мере, так он думает. В действительности же лидеры Иркена просто отослали его в самый дальний уголок вселенной, чтобы избавиться от надоедливого захватчика. Вместе со своим вечно глючащим робиком Гиром, Зим относится к миссии очень ответственно. Поскольку информации о будущем поле боя пока что очень мало, Зим решает влиться в толпу земных школьников и постепенно осуществлять свои разрушительные замыслы.

Страна: Корея Южная, США
Продолжительность: 01:11:37
Перевод: Многоголосый закадровый

Роли озвучивали:
? - VPStudio
Станислав Шепелев, Вадим Казанцев - Лава
Евген Малуха, Роман Чупис, Олекса Мельник, Юля Малахова - Simpsonsua

Файл
Кодек: AVC
Качество: WEB-DL 1080 | Invader.Zim.Enter.The.Florpus.2019.1080p.NF.WEB-DL.DDP5.1.H.264-TOMMY
Видео: MPEG-4 AVC, 3830 Kбит/с, 1920x1080, 23.976 кадр/с
Звук:
Русский (AAC, 2 ch, 317 Кбит/с, 48.0 KHz) VPStudio
Русский (AAC, 2 ch, 188 Кбит/с, 48.0 KHz) Лава
Украинский (AС3, 2 ch, 192 Кбит/с, 48.0 KHz) Simpsonsua
Английский (E-АС3, 6 ch, 640 Кбит/с, 48.0 KHz) Оригинал
Польский (AAC, 2 ch, 96 Кбит/с, 48.0/24.00 KHz)
Субтитры:
Русские, английские, испанские, французские, немецкие, итальянские, польские | Нетфликс
Русские отредактированные | invaderzim_club
► Релиз без Рекламы!

Семпл


[+] mediainfo
источник Invader.Zim.Enter.The.Florpus.2019.1080p.NF.WEB-DL.DDP5.1.H.264-TOMMY
General
Unique ID                   : 176537736281748137025952489928182321950 (0x84CFEE672EA54840BEF4A0999DD5D31E)
Format                      : Matroska
Format version              : Version 4 / Version 2
File size                   : 2.61 GiB
Duration                    : 1 h 11 min
Overall bit rate mode       : Variable
Overall bit rate            : 5 209 kb/s
Encoded date                : UTC 2019-09-09 17:50:38
Writing application         : mkvmerge v16.0.0 ('Protest') 64-bit
Writing library             : libebml v1.3.5 + libmatroska v1.4.8
Cover                       : Yes
Attachments                 : cover.png

Video
ID                          : 1
Format                      : AVC
Format/Info                 : Advanced Video Codec
Format profile              : Main@L4
Format settings, CABAC      : Yes
Format settings, ReFrames   : 3 frames
Codec ID                    : V_MPEG4/ISO/AVC
Duration                    : 1 h 11 min
Bit rate mode               : Variable
Bit rate                    : 3 830 kb/s
Maximum bit rate            : 5 745 kb/s
Width                       : 1 920 pixels
Height                      : 1 080 pixels
Display aspect ratio        : 16:9
Frame rate mode             : Constant
Frame rate                  : 23.976 (24000/1001) FPS
Color space                 : YUV
Chroma subsampling          : 4:2:0
Bit depth                   : 8 bits
Scan type                   : Progressive
Bits/(Pixel*Frame)          : 0.077
Stream size                 : 1.89 GiB (72%)
Writing library             : x264 core 148 r2715 7e75228
Encoding settings           : cabac=1 / ref=3 / deblock=1:0:0 / analyse=0x1:0x111 / me=umh / subme=10 / psy=1 / psy_rd=1.00:0.00 / mixed_ref=1 / me_range=24 / chroma_me=1 / trellis=2 / 8x8dct=0 / cqm=0 / deadzone=21,11 / fast_pskip=1 / chroma_qp_offset=-2 / threads=8 / lookahead_threads=1 / sliced_threads=0 / nr=0 / decimate=1 / interlaced=0 / bluray_compat=0 / stitchable=1 / constrained_intra=0 / bframes=2 / b_pyramid=0 / b_adapt=2 / b_bias=0 / direct=3 / weightb=1 / open_gop=0 / weightp=2 / keyint=250 / keyint_min=23 / scenecut=0 / intra_refresh=0 / rc_lookahead=48 / rc=2pass / mbtree=1 / bitrate=3830 / ratetol=1.0 / qcomp=0.50 / qpmin=6 / qpmax=51 / qpstep=4 / cplxblur=20.0 / qblur=0.5 / vbv_maxrate=5745 / vbv_bufsize=7660 / nal_hrd=vbr / filler=0 / ip_ratio=1.40 / aq=1:1.00
Default                     : Yes
Forced                      : No

Audio #1
ID                          : 2
Format                      : AAC
Format/Info                 : Advanced Audio Codec
Format profile              : Main
Codec ID                    : A_AAC
Duration                    : 1 h 11 min
Bit rate                    : 317 kb/s
Channel(s)                  : 2 channels
Channel positions           : Front: L R
Sampling rate               : 48.0 kHz
Frame rate                  : 46.875 FPS (1024 spf)
Compression mode            : Lossy
Stream size                 : 163 MiB (6%)
Title                       : Russian [VPStudio]
Language                    : Russian
Default                     : No
Forced                      : No

Audio #2
ID                          : 3
Format                      : AAC
Format/Info                 : Advanced Audio Codec
Format profile              : LC
Codec ID                    : A_AAC
Duration                    : 1 h 11 min
Bit rate                    : 188 kb/s
Channel(s)                  : 2 channels
Channel positions           : Front: L R
Sampling rate               : 48.0 kHz
Frame rate                  : 46.875 FPS (1024 spf)
Compression mode            : Lossy
Stream size                 : 96.3 MiB (4%)
Title                       : Russian [Лава]
Language                    : Russian
Default                     : No
Forced                      : No

Audio #3
ID                          : 4
Format                      : AC-3
Format/Info                 : Audio Coding 3
Mode extension              : CM (complete main)
Format settings, Endianness : Big
Codec ID                    : A_AC3
Duration                    : 1 h 11 min
Bit rate mode               : Constant
Bit rate                    : 192 kb/s
Channel(s)                  : 2 channels
Channel positions           : Front: L R
Sampling rate               : 48.0 kHz
Frame rate                  : 31.250 FPS (1536 spf)
Compression mode            : Lossy
Stream size                 : 98.3 MiB (4%)
Title                       : Ukrainian [simpsonsua]
Language                    : Ukrainian
Default                     : No
Forced                      : No

Audio #4
ID                          : 5
Format                      : E-AC-3
Format/Info                 : Audio Coding 3
Format settings, Endianness : Big
Codec ID                    : A_EAC3
Duration                    : 1 h 11 min
Bit rate mode               : Constant
Bit rate                    : 640 kb/s
Channel(s)                  : 6 channels
Channel positions           : Front: L C R, Side: L R, LFE
Sampling rate               : 48.0 kHz
Frame rate                  : 187.500 FPS (256 spf)
Compression mode            : Lossy
Stream size                 : 328 MiB (12%)
Title                       : Original
Language                    : English
Default                     : No
Forced                      : No

Audio #5
ID                          : 6
Format                      : AAC
Format/Info                 : Advanced Audio Codec
Format profile              : HE-AAC / LC
Codec ID                    : A_AAC
Duration                    : 1 h 11 min
Bit rate                    : 96.0 kb/s
Channel(s)                  : 2 channels
Channel positions           : Front: L R
Sampling rate               : 48.0 kHz / 24.0 kHz
Frame rate                  : 23.438 FPS (1024 spf)
Compression mode            : Lossy
Stream size                 : 49.2 MiB (2%)
Title                       : Polish
Language                    : Polish
Default                     : No
Forced                      : No

Text #1
ID                          : 7
Format                      : UTF-8
Codec ID                    : S_TEXT/UTF8
Codec ID/Info               : UTF-8 Plain Text
Duration                    : 1 h 10 min
Bit rate                    : 96 b/s
Count of elements           : 976
Stream size                 : 49.9 KiB (0%)
Title                       : Russian
Language                    : Russian
Default                     : No
Forced                      : No

Text #2
ID                          : 8
Format                      : UTF-8
Codec ID                    : S_TEXT/UTF8
Codec ID/Info               : UTF-8 Plain Text
Duration                    : 1 h 10 min
Bit rate                    : 101 b/s
Count of elements           : 993
Stream size                 : 52.5 KiB (0%)
Title                       : Russian [invaderzim_club]
Language                    : Russian
Default                     : No
Forced                      : No

Text #3
ID                          : 9
Format                      : UTF-8
Codec ID                    : S_TEXT/UTF8
Codec ID/Info               : UTF-8 Plain Text
Duration                    : 1 h 9 min
Bit rate                    : 76 b/s
Count of elements           : 1387
Stream size                 : 38.7 KiB (0%)
Title                       : English
Language                    : English
Default                     : No
Forced                      : No

Text #4
ID                          : 10
Format                      : UTF-8
Codec ID                    : S_TEXT/UTF8
Codec ID/Info               : UTF-8 Plain Text
Duration                    : 1 h 10 min
Bit rate                    : 61 b/s
Count of elements           : 931
Stream size                 : 31.6 KiB (0%)
Title                       : German
Language                    : German
Default                     : No
Forced                      : No

Text #5
ID                          : 11
Format                      : UTF-8
Codec ID                    : S_TEXT/UTF8
Codec ID/Info               : UTF-8 Plain Text
Duration                    : 1 h 10 min
Bit rate                    : 60 b/s
Count of elements           : 981
Stream size                 : 31.1 KiB (0%)
Title                       : French
Language                    : French
Default                     : No
Forced                      : No

Text #6
ID                          : 12
Format                      : UTF-8
Codec ID                    : S_TEXT/UTF8
Codec ID/Info               : UTF-8 Plain Text
Duration                    : 1 h 10 min
Bit rate                    : 60 b/s
Count of elements           : 988
Stream size                 : 31.0 KiB (0%)
Title                       : Spanish
Language                    : Spanish
Default                     : No
Forced                      : No

Text #7
ID                          : 13
Format                      : UTF-8
Codec ID                    : S_TEXT/UTF8
Codec ID/Info               : UTF-8 Plain Text
Duration                    : 1 h 10 min
Bit rate                    : 61 b/s
Count of elements           : 947
Stream size                 : 31.7 KiB (0%)
Title                       : Italian
Language                    : Italian
Default                     : No
Forced                      : No

Text #8
ID                          : 14
Format                      : UTF-8
Codec ID                    : S_TEXT/UTF8
Codec ID/Info               : UTF-8 Plain Text
Duration                    : 1 h 10 min
Bit rate                    : 59 b/s
Count of elements           : 974
Stream size                 : 30.8 KiB (0%)
Title                       : Polish
Language                    : Polish
Default                     : No
Forced                      : No



Скриншоты:
[+] Всего файлов в раздаче - 1:
Invader.Zim.Enter.the.Florpus.2019.1080p.NF.WEB-DL.MVO.rus.ukr.pol.mkv2.61 GB

Похожие раздачи по запросу - захватчик:
2019-08-20 U Захватчик ЗИМ: Вход во Флорпус / Invader ZIM: Enter the Florpus (2019) WEB-DL 1080p | Sub 2.21 GB ↑ 53 ↓ 6

Отзывы
Зарегистрируйтесь чтобы добавить комментарий.
Обратная связь
Copyleft ©