↑↓Torrent.by
Поиск
Логин: Регистрация
Пароль: Восстановить пароль
Загрузка...

Илон Маск: Настоящий железный человек / Elon Musk: The Real Life Iron Man (2018) WEB-DLRip | iTunes

Скачать ilon-mask-nastoyaschiy-zheleznyy-chelovek-elon-musk-the-real-life-iron-man-2018-web-dlrip-itunes.torrent
U Магнитная ссылка Размер: 1.09 GB Раздают: 37 Качают: 20 Добавлен: 2019-09-11 10:07:24
Илон Маск: Настоящий железный человек / Elon Musk: The Real Life Iron Man (2018) WEB-DLRip | iTunes

Илон Маск: Настоящий железный человек / Elon Musk: The Real Life Iron Man

Страна: Великобритания
Производство: Premiere Picture, SEIS Reel
Год выпуска: 2018
Жанр:  документальный, биография
Продолжительность: 01:14:17

Режиссер: Соня Андерсон / Sonia Anderson
В ролях: Илон Маск, Эмбер Хёрд, Талула Райли, Кэри Купер, Даниэла Альберс, Джули Андерсон Аскенбрандт, Ричард Брэнсон, Сара Круддас

Описание: История жизни и достижений одного из самых ярких людей нынешнего столетия — изобретателя, предпринимателя, филантропа и безудержного мечтателя. Родившийся в Южной Африке в семье простого инженера и фотомодели, Илон Маск за свои 48 лет успел основать около десятка успешных инновационных компаний, с нуля заработать на своих идеях несколько десятков миллиардов долларов, трижды жениться, стать отцом пятерых детей… И он не сомневается, что его SpaceX совершит пилотируемый полет на Марс не позднее 2025 года...

Перевод: Профессиональный (многоголосый, закадровый) | iTunes
Субтитры: нет

Качество: WEB-DLRip
Формат: AVI
Видео кодек: XviD
Аудио кодек: АС3
Видео: 688x384 (16:9), 24.000 fps, XviD build 73 ~1 897 kbps avg
Аудио: 48.0 kHz, AC3 Dolby Digital, 2/0 (L,R) ch, ~192 kbps

Дата премьеры (мир): 4 декабря 2018

Релиз от: порошков


[+] Media Info
General
Формат                                   : AVI
Формат/Информация                        : Audio Video Interleave
Размер файла                             : 1,09 Гбайт
Продолжительность                        : 1 ч. 14 м.
Общий поток                              : 2098 Кбит/сек
Название фильма                          : Илон Маск.Настоящий железный человек_2018_WEB-DLRip
Программа кодирования                    : VirtualDubMod 1.5.10.3 | (build 2550/release)
Авторское право                          : порошков

Видео
Идентификатор                            : 0
Формат                                   : MPEG-4 Visual
Профиль формата                          : Advanced Simple@L5
Настройки формата                        : BVOP1 / Custom Matrix
Параметр BVOP формата                    : 1
Параметр QPel формата                    : Нет
Параметр GMC формата                     : Без точки перехода
Параметр матрицы формата                 : Выборочная
Идентификатор кодека                     : XVID
Идентификатор кодека/Подсказка           : XviD
Продолжительность                        : 1 ч. 14 м.
Битрейт                                  : 1897 Кбит/сек
Ширина                                   : 688 пикселей
Высота                                   : 384 пикселя
Соотношение сторон                       : 16:9
Частота кадров                           : 24,000 кадра/сек
Цветовое пространство                    : YUV
Субдискретизация насыщенности            : 4:2:0
Битовая глубина                          : 8 бит
Тип развёртки                            : Прогрессивная
Метод сжатия                             : С потерями
Бит/(Пиксели*Кадры)                      : 0.299
Размер потока                            : 1008 Мбайт (90%)
Библиотека кодирования                   : XviD 73

Аудио
Идентификатор                            : 1
Формат                                   : AC-3
Формат/Информация                        : Audio Coding 3
Коммерческое название                    : Dolby Digital
Идентификатор кодека                     : 2000
Продолжительность                        : 1 ч. 14 м.
Вид битрейта                             : Постоянный
Битрейт                                  : 192 Кбит/сек
Каналы                                   : 2 канала
ChannelLayout                            : L R
Частота                                  : 48,0 КГц
Частота кадров                           : 31,250 кадров/сек (1536 SPF)
Битовая глубина                          : 16 бит
Метод сжатия                             : С потерями
Размер потока                            : 102 Мбайт (9%)
Выравнивание                             : Разделение по промежуткам
Продолжительность промежутка             : 42  мс. (1,00 видеокадр)
Время предзагрузки промежутка            : 500  мс.



Скриншоты:
[+] Всего файлов в раздаче - 1:
Илон Маск.Настоящий железный человек_2018_WEB-DLRip.avi1.09 GB

Отзывы
zurqwany Оценка: 1
Шарлатан и социопат страдающий нарцисизмом. Вали в свою Южную Африку.

Зарегистрируйтесь чтобы добавить комментарий.
Обратная связь
Copyleft ©