↑↓Torrent.by
Поиск
Логин: Регистрация
Пароль: Восстановить пароль

Наркокурьер / The Mule (2018) BDRip-AVC от OlLanDGroup | D, P, A | Лицензия

Скачать narkokurer-the-mule-2018-bdrip-avc-ot-ollandgroup-d-p-a-licenziya.torrent
U Магнитная ссылка Размер: 2.94 GB Раздают: 96 Качают: 6 Добавлен: 2019-09-11 16:52:11

Наркокурьер / The Mule
«Nobody Runs Forever»



Год выпуска: 2018
Страна: США
Производство: Warner Bros., Imperative Entertainment, Bron Creative
Жанр:  Триллер, драма, криминал, детектив

Режиссёр: Клинт Иствуд
В ролях: Клинт Иствуд, Брэдли Купер, Таисса Фармига, Элисон Иствуд, Майкл Пенья, Энди Гарсиа, Лоуренс Фишборн, Дайэнн Уист, Игнасио Серричио, Джилл Флинт

Перевод:
► Дублированный | [Лицензия]
► Профессиональный многоголосый | [HDRezka Studio]
► Авторский | [М.Яроцкий]
► Авторский | [Е.Гаевский]
Субтитры: Русские (форс., полные)
Реклама: Отсутствует

Описание: Эрл Стоун — одинокий старик. Его частный бизнес находится на грани разорения, отношения с женой не ладятся, а дети, кажется, давно забыли о его существовании. Неожиданно ему предлагают непыльную, но прибыльную работенку — просто водить машину. Стоун соглашается и вскоре обнаруживает, что стал наркокурьером мексиканского картеля.



Качество: BDRip-AVC
Продолжительность: 01:56:27

Формат: MKV
Видео кодек: MPEG-4 AVC
Аудио кодек: AC3
Видео: 1024x428 (2.40:1), 23,976 fps, x264 ~1 821 kbps avg, 0.173 bit/pixel
Аудио #1: 48 kHz, AC3 Dolby Digital, 3/2 (L,C,R,l,r) + LFE ch, ~448.00 kbps avg | RUS (Лицензия)
Аудио #2: 48 kHz, AC3 Dolby Digital, 3/2 (L,C,R,l,r) + LFE ch, ~448.00 kbps avg | RUS (HDRezka Studio)
Аудио #3: 48 kHz, AC3 Dolby Digital, 3/2 (L,C,R,l,r) + LFE ch, ~448.00 kbps avg | RUS (М.Яроцкий)
Аудио #4: 48 kHz, AC3 Dolby Digital, 3/2 (L,C,R,l,r) + LFE ch, ~448.00 kbps avg | RUS (Е.Гаевский)

Дата премьеры (мир): 8 марта 2018
Дата премьеры (РФ): 19 апреля 2018, «Вольга»


Релиз от: Rip by:

[+] "MediaInfo"

Общее
Уникальный идентификатор                 : 335768703298177086372502772189643543111 (0xFC9AB333A8B1ED12E514A394AEB61247)
Полное имя                               : F:OlLanDGroupThe.Mule.2018.BDRip(AVC).OllanDGroup.mkv
Формат                                   : Matroska
Версия формата                           : Version 4 / Version 2
Размер файла                             : 2,94 Гбайт
Продолжительность                        : 1 ч. 56 м.
Общий поток                              : 3613 Кбит/сек
Название фильма                          : The Mule 2018   #TorpedoUK#
Дата кодирования                         : UTC 2019-09-10 16:10:26
Программа кодирования                    : mkvmerge v29.0.0 ('Like It Or Not') 64-bit
Библиотека кодирования                   : libebml v1.3.6 + libmatroska v1.4.9

Видео
Идентификатор                            : 1
Формат                                   : AVC
Формат/Информация                        : Advanced Video Codec
Профиль формата                          : High@L4.1
Параметр CABAC формата                   : Да
Параметр ReFrames формата                : 10 кадров
Идентификатор кодека                     : V_MPEG4/ISO/AVC
Продолжительность                        : 1 ч. 56 м.
Битрейт                                  : 1821 Кбит/сек
Ширина                                   : 1024 пикселя
Высота                                   : 428 пикселей
Соотношение сторон                       : 2,40:1
Режим частоты кадров                     : Постоянный
Частота кадров                           : 23,976 (24000/1001) кадра/сек
Цветовое пространство                    : YUV
Субдискретизация насыщенности            : 4:2:0
Битовая глубина                          : 8 бит
Тип развёртки                            : Прогрессивная
Бит/(Пиксели*Кадры)                      : 0.173
Размер потока                            : 1,48 Гбайт (50%)
Библиотека кодирования                   : x264 core 146 r2538 121396c
Настройки программы                      : cabac=1 / ref=10 / deblock=1:-2:-3 / analyse=0x3:0x113 / me=umh / subme=11 / psy=1 / psy_rd=0.97:0.05 / mixed_ref=1 / me_range=48 / chroma_me=1 / trellis=2 / 8x8dct=1 / cqm=0 / deadzone=21,11 / fast_pskip=1 / chroma_qp_offset=-3 / threads=6 / lookahead_threads=1 / sliced_threads=0 / nr=0 / decimate=1 / interlaced=0 / bluray_compat=0 / constrained_intra=0 / bframes=11 / b_pyramid=2 / b_adapt=2 / b_bias=0 / direct=3 / weightb=1 / open_gop=0 / weightp=2 / keyint=240 / keyint_min=23 / scenecut=40 / intra_refresh=0 / rc_lookahead=40 / rc=2pass / mbtree=0 / bitrate=1821 / ratetol=1.0 / qcomp=0.60 / qpmin=0 / qpmax=69 / qpstep=4 / cplxblur=20.0 / qblur=0.5 / vbv_maxrate=50000 / vbv_bufsize=62500 / nal_hrd=none / filler=0 / ip_ratio=1.40 / pb_ratio=1.30 / aq=1:1.00
Язык                                     : English
Default                                  : Да
Forced                                   : Нет

Аудио #1
Идентификатор                            : 2
Формат                                   : AC-3
Формат/Информация                        : Audio Coding 3
Расширение режима                        : CM (complete main)
Параметр Endianness формата              : Big
Идентификатор кодека                     : A_AC3
Продолжительность                        : 1 ч. 56 м.
Вид битрейта                             : Постоянный
Битрейт                                  : 448 Кбит/сек
Каналы                                   : 6 каналов
Расположение каналов                     : Front: L C R, Side: L R, LFE
Частота                                  : 48,0 КГц
Частота кадров                           : 31,250 кадров/сек (1536 spf)
Битовая глубина                          : 16 бит
Метод сжатия                             : С потерями
Размер потока                            : 373 Мбайт (12%)
Заголовок                                : DUB [License]
Язык                                     : Russian
Default                                  : Да
Forced                                   : Нет

Аудио #2
Идентификатор                            : 3
Формат                                   : AC-3
Формат/Информация                        : Audio Coding 3
Расширение режима                        : CM (complete main)
Параметр Endianness формата              : Big
Идентификатор кодека                     : A_AC3
Продолжительность                        : 1 ч. 56 м.
Вид битрейта                             : Постоянный
Битрейт                                  : 448 Кбит/сек
Каналы                                   : 6 каналов
Расположение каналов                     : Front: L C R, Side: L R, LFE
Частота                                  : 48,0 КГц
Частота кадров                           : 31,250 кадров/сек (1536 spf)
Битовая глубина                          : 16 бит
Метод сжатия                             : С потерями
Размер потока                            : 373 Мбайт (12%)
Заголовок                                : MVO [HDRezka Studio]
Язык                                     : Russian
Default                                  : Нет
Forced                                   : Нет

Аудио #3
Идентификатор                            : 4
Формат                                   : AC-3
Формат/Информация                        : Audio Coding 3
Расширение режима                        : CM (complete main)
Параметр Endianness формата              : Big
Идентификатор кодека                     : A_AC3
Продолжительность                        : 1 ч. 56 м.
Вид битрейта                             : Постоянный
Битрейт                                  : 448 Кбит/сек
Каналы                                   : 6 каналов
Расположение каналов                     : Front: L C R, Side: L R, LFE
Частота                                  : 48,0 КГц
Частота кадров                           : 31,250 кадров/сек (1536 spf)
Битовая глубина                          : 16 бит
Метод сжатия                             : С потерями
Размер потока                            : 373 Мбайт (12%)
Заголовок                                : AVO [М.Яроцкий]
Язык                                     : Russian
Default                                  : Нет
Forced                                   : Нет

Аудио #4
Идентификатор                            : 5
Формат                                   : AC-3
Формат/Информация                        : Audio Coding 3
Расширение режима                        : CM (complete main)
Параметр Endianness формата              : Big
Идентификатор кодека                     : A_AC3
Продолжительность                        : 1 ч. 56 м.
Вид битрейта                             : Постоянный
Битрейт                                  : 448 Кбит/сек
Каналы                                   : 6 каналов
Расположение каналов                     : Front: L C R, Side: L R, LFE
Частота                                  : 48,0 КГц
Частота кадров                           : 31,250 кадров/сек (1536 spf)
Битовая глубина                          : 16 бит
Метод сжатия                             : С потерями
Размер потока                            : 373 Мбайт (12%)
Заголовок                                : AVO [Е.Гаевский]
Язык                                     : Russian
Default                                  : Нет
Forced                                   : Нет

Текст #1
Идентификатор                            : 6
Формат                                   : UTF-8
Идентификатор кодека                     : S_TEXT/UTF8
Идентификатор кодека/Информация          : UTF-8 Plain Text
Продолжительность                        : 1 ч. 55 м.
Битрейт                                  : 5 бит/сек
Count of elements                        : 94
Размер потока                            : 4,37 Кбайт (0%)
Заголовок                                : Forced
Язык                                     : Russian
Default                                  : Да
Forced                                   : Нет

Текст #2
Идентификатор                            : 7
Формат                                   : UTF-8
Идентификатор кодека                     : S_TEXT/UTF8
Идентификатор кодека/Информация          : UTF-8 Plain Text
Продолжительность                        : 1 ч. 55 м.
Битрейт                                  : 91 бит/сек
Count of elements                        : 1556
Размер потока                            : 77,4 Кбайт (0%)
Заголовок                                : Full
Язык                                     : Russian
Default                                  : Нет
Forced                                   : Нет

Меню
00:00:00.000                             : en:00:00:00.000
00:06:45.822                             : en:00:06:45.822
00:15:27.885                             : en:00:15:27.885
00:23:24.236                             : en:00:23:24.236
00:32:22.482                             : en:00:32:22.482
00:40:29.886                             : en:00:40:29.886
00:48:20.564                             : en:00:48:20.564
00:57:55.347                             : en:00:57:55.347
01:07:17.408                             : en:01:07:17.408
01:16:17.364                             : en:01:16:17.364
01:23:18.785                             : en:01:23:18.785
01:32:20.160                             : en:01:32:20.160
01:39:12.947                             : en:01:39:12.947
01:46:17.580                             : en:01:46:17.580
01:48:52.443                             : en:01:48:52.443

[+] "Скриншоты"




[+] Всего файлов в раздаче - 1:
The.Mule.2018.BDRip(AVC).OllanDGroup.mkv2.94 GB

Похожие раздачи по запросу - наркокурьер:
2019-06-08 U Наркокурьер / The Mule (2018) BDRip от HQ-ViDEO | Лицензия 2.18 GB ↑ 121 ↓ 15
2019-04-27 U Наркокурьер / The Mule (2018) BDRip от Twister & ExKinoRay | iTunes 1.41 GB ↑ 379 ↓ 24
2019-04-02 U Наркокурьер / The Mule (2018) BDRip от ExKinoRay | HDRezka Studio 2.18 GB ↑ 261 ↓ 27
2019-03-28 U Наркокурьер / The Mule (2018) BDRip-AVC от HELLYWOOD | A 2.18 GB ↑ 259 ↓ 66

Отзывы
Зарегистрируйтесь чтобы добавить комментарий.
Обратная связь
Copyleft ©