↑↓Torrent.by
Поиск
Логин: Регистрация
Пароль: Восстановить пароль

Игра Ганнибала / Nomis / Night Hunter (2018) BDRip-AVC от OlLanDGroup | P

Скачать igra-gannibala-nomis-night-hunter-2018-bdrip-avc-ot-ollandgroup-p.torrent
U Магнитная ссылка Размер: 1.70 GB Раздают: 93 Качают: 18 Добавлен: 2019-09-12 12:52:34
Игра Ганнибала / Nomis / Night Hunter (2018) BDRip-AVC от OlLanDGroup | P

Игра Ганнибала / Nomis / Night Hunter
«Его разные личности играют в разные игры...»

Год выпуска: 2018
Страна: Канада, США
Производство: Arcola Entertainment, Arise Pictures, Buffalo Gal Pictures
Жанр:  Боевик, триллер

Режиссёр: Дэвид Рэймонд
В ролях: Бен Кингсли, Стэнли Туччи, Александра Даддарио, Генри Кавилл, Минка Келли, Натан Филлион, Сара Томпсон, Элиана Джонс, Брендан Флетчер, Эмма Тремблей

Перевод: Профессиональный многоголосый | [HDRezka Studio]
Субтитры: Русские (форс.), Английские (полные)
Реклама: Отсутствует

Описание: Бывший судья, разочаровавшийся в системе правосудия, вместе с девушкой, которая работает приманкой для педофилов, ловит и сам наказывает извращенцев. Однажды помощницу мстителя похищают, и с помощью системы отслеживания местоположения он помогает полиции поймать опасного убийцу, на счету которого множество жертв. Тот кажется парнем недалёким, но профайлер уверена — в маньяке уживается несколько личностей.

Качество: BDRip-AVC | BDRemux | Nomis.2018.1080p.BluRay.REMUX.AVC.TrueHD.5.1-iFT
Продолжительность: 01:38:58

Формат: MKV
Видео кодек: MPEG-4 AVC
Аудио кодек: AC3
Видео: 1024x428 (2.40:1), 23,976 fps, x264 ~1 812 kbps avg, 0.172 bit/pixel
Аудио #1: 48 kHz, AC3 Dolby Digital, 2/0 (L,R) ch, ~192.00 kbps avg | RUS (HDRezka Studio)
Аудио #2: 48 kHz, AC3 Dolby Digital, 3/2 (L,C,R,l,r) + LFE ch, ~448.00 kbps avg | ENG

Дата премьеры (мир): 28 сентября 2018
Дата премьеры (РФ): 29 августа 2019, «Экспонента»
Цифровой релиз:

Релиз:


[+] MediaInfo

Общее
Уникальный идентификатор                 : 95112967125471669901206817720022966302 (0x478E17558487A3C71E6D1A1A094DA01E)
Полное имя                               : F:OlLanDGroupNomis.2018.BDRip(AVC).OlLanDGroup.mkv
Формат                                   : Matroska
Версия формата                           : Version 4 / Version 2
Размер файла                             : 1,70 Гбайт
Продолжительность                        : 1 ч. 38 м.
Общий поток                              : 2453 Кбит/сек
Название фильма                          : Nomis.2018   #TorpedoUK#
Дата кодирования                         : UTC 2019-09-12 02:36:58
Программа кодирования                    : mkvmerge v29.0.0 ('Like It Or Not') 64-bit
Библиотека кодирования                   : libebml v1.3.6 + libmatroska v1.4.9

Видео
Идентификатор                            : 1
Формат                                   : AVC
Формат/Информация                        : Advanced Video Codec
Профиль формата                          : High@L4.1
Параметр CABAC формата                   : Да
Параметр ReFrames формата                : 10 кадров
Идентификатор кодека                     : V_MPEG4/ISO/AVC
Продолжительность                        : 1 ч. 38 м.
Битрейт                                  : 1812 Кбит/сек
Ширина                                   : 1024 пикселя
Высота                                   : 428 пикселей
Соотношение сторон                       : 2,40:1
Режим частоты кадров                     : Постоянный
Частота кадров                           : 23,976 (24000/1001) кадра/сек
Цветовое пространство                    : YUV
Субдискретизация насыщенности            : 4:2:0
Битовая глубина                          : 8 бит
Тип развёртки                            : Прогрессивная
Бит/(Пиксели*Кадры)                      : 0.172
Размер потока                            : 1,25 Гбайт (74%)
Библиотека кодирования                   : x264 core 146 r2538 121396c
Настройки программы                      : cabac=1 / ref=10 / deblock=1:-3:-3 / analyse=0x3:0x113 / me=umh / subme=11 / psy=1 / psy_rd=0.95:0.07 / mixed_ref=1 / me_range=48 / chroma_me=1 / trellis=2 / 8x8dct=1 / cqm=0 / deadzone=21,11 / fast_pskip=1 / chroma_qp_offset=-6 / threads=6 / lookahead_threads=1 / sliced_threads=0 / nr=0 / decimate=1 / interlaced=0 / bluray_compat=0 / constrained_intra=0 / bframes=11 / b_pyramid=2 / b_adapt=2 / b_bias=0 / direct=3 / weightb=1 / open_gop=0 / weightp=2 / keyint=240 / keyint_min=23 / scenecut=40 / intra_refresh=0 / rc_lookahead=40 / rc=2pass / mbtree=0 / bitrate=1812 / ratetol=1.0 / qcomp=0.60 / qpmin=0 / qpmax=69 / qpstep=4 / cplxblur=20.0 / qblur=0.5 / vbv_maxrate=50000 / vbv_bufsize=62500 / nal_hrd=none / filler=0 / ip_ratio=1.40 / pb_ratio=1.30 / aq=1:1.00
Язык                                     : English
Default                                  : Да
Forced                                   : Нет

Аудио #1
Идентификатор                            : 2
Формат                                   : AC-3
Формат/Информация                        : Audio Coding 3
Расширение режима                        : CM (complete main)
Параметр Endianness формата              : Big
Идентификатор кодека                     : A_AC3
Продолжительность                        : 1 ч. 38 м.
Вид битрейта                             : Постоянный
Битрейт                                  : 192 Кбит/сек
Каналы                                   : 2 канала
Расположение каналов                     : Front: L R
Частота                                  : 48,0 КГц
Частота кадров                           : 31,250 кадров/сек (1536 spf)
Битовая глубина                          : 16 бит
Метод сжатия                             : С потерями
Размер потока                            : 136 Мбайт (8%)
Заголовок                                : MVO [HDRezka Studio]
Язык                                     : Russian
Default                                  : Да
Forced                                   : Нет

Аудио #2
Идентификатор                            : 3
Формат                                   : AC-3
Формат/Информация                        : Audio Coding 3
Расширение режима                        : CM (complete main)
Параметр Endianness формата              : Big
Идентификатор кодека                     : A_AC3
Продолжительность                        : 1 ч. 38 м.
Вид битрейта                             : Постоянный
Битрейт                                  : 448 Кбит/сек
Каналы                                   : 6 каналов
Расположение каналов                     : Front: L C R, Side: L R, LFE
Частота                                  : 48,0 КГц
Частота кадров                           : 31,250 кадров/сек (1536 spf)
Битовая глубина                          : 16 бит
Метод сжатия                             : С потерями
Размер потока                            : 317 Мбайт (18%)
Заголовок                                : [Original]
Язык                                     : English
Default                                  : Нет
Forced                                   : Нет

Текст #1
Идентификатор                            : 4
Формат                                   : UTF-8
Идентификатор кодека                     : S_TEXT/UTF8
Идентификатор кодека/Информация          : UTF-8 Plain Text
Продолжительность                        : 1 ч. 1 м.
Битрейт                                  : 1 бит/сек
Count of elements                        : 12
Размер потока                            : 490 байт (0%)
Заголовок                                : Forced
Язык                                     : Russian
Default                                  : Нет
Forced                                   : Нет

Текст #2
Идентификатор                            : 5
Формат                                   : UTF-8
Идентификатор кодека                     : S_TEXT/UTF8
Идентификатор кодека/Информация          : UTF-8 Plain Text
Продолжительность                        : 1 ч. 32 м.
Битрейт                                  : 43 бит/сек
Count of elements                        : 1100
Размер потока                            : 29,4 Кбайт (0%)
Заголовок                                : Full
Язык                                     : English
Default                                  : Нет
Forced                                   : Нет

Меню
00:00:00.000                             : en:Chapter 01
00:13:20.299                             : en:Chapter 02
00:25:10.884                             : en:Chapter 03
00:40:01.107                             : en:Chapter 04
00:53:13.315                             : en:Chapter 05
01:08:14.507                             : en:Chapter 06
01:23:00.142                             : en:Chapter 07
01:33:35.652                             : en:Chapter 08



Скриншоты:
[+] Всего файлов в раздаче - 1:
Nomis.2018.BDRip(AVC).OlLanDGroup.mkv1.70 GB

Показать еще раздачи по запросу игра:
Вчера U Игра с огнем / Burn (2019) BDRip 1080p от селезень | iTunes 7.73 GB ↑ 44 ↓ 52
Вчера U Игра с огнем / Burn (2019) BDRip-AVC от ExKinoRay | iTunes 1.68 GB ↑ 56 ↓ 12
Вчера U Игра с огнем / Burn (2019) BDRip от MegaPeer | iTunes 1.42 GB ↑ 118 ↓ 23
2019-11-07 U Игра с огнем / Burn (2019) WEB-DLRip от MegaPeer | iTunes 1.46 GB ↑ 153 ↓ 75
2019-11-07 U Игра Ганнибала / Nomis / Night Hunter (2018) BDRip 720p от селезень | D, P | iTunes 4.04 GB ↑ 65 ↓ 42
2019-11-07 U Игра Ганнибала / Nomis / Night Hunter (2018) BDRip 1080p от селезень | D, P | iTunes 8.17 GB ↑ 46 ↓ 42
2019-11-07 U Игра с огнем / Burn (2019) WEB-DL 1080p от селезень | iTunes 5.86 GB ↑ 46 ↓ 40

Отзывы
alexlux Оценка: 7
Приличный фильм. Не шедевр, но для вечернего просмотра вполне.

Зарегистрируйтесь чтобы добавить комментарий.
Обратная связь
Copyleft ©